img image001 image001 image001 image001 image001 image001 image001 image001 image001 image001 image001 image001 image001 image001 image001

Planets Sun Sun Sun
Статистика раздачи
Автор: Nickolas3434 | Размер: 3.47 ГБ | Добавлен: 12 июл 2016
Раздают: 151    Качают: 5
Скачать торрент
Скачать торрент
Описание торрента

СообщениеДобавлено: 12 июл 2016 

Телескоп Хаббл / IMAX: Hubble

Русское название: Телескоп Хаббл
Оригинальное название: IMAX: Hubble
Год выпуска: 2010
Жанр: документальный
Выпущено: Канада
Режиссер: Тони Майерс
В ролях: Леонардо ДиКаприо , Скотт Д. Олтмэн , Эндрю Дж. Фьюстел , Майкл Т. Гуд , Джон М. Грансфелд , Грегори С. Джонсон , Майкл Дж. Массимино , К. Меган МакАртур
Перевод: Авторский одноголосый

Сюжет фильма:
Используя визуальную мощь кинотеатров IMAX, Hubble 3D позволит кинозрителям путешествовать через отдаленные галактики, исследовать великолепие и тайны нашей вселенной, и сопровождать работу астронавтов, на плечи которых возложены самые трудные и важные задачи в истории НАСА. Благодаря космическому телескопу Хаббл мы увидим вселенную такой, какой ее только можно увидеть в космосе с помощью самого мощного в мире телескопа.

Качество: BDRip 1080p
Формат: AVC (библиотека кодирования x.264)
Контейнер (Расширение): MKV
Видео: 1920x1080, 10000 Кбит/сек, 23,976 кадр/сек, 0,201 Бит/[Пиксели*Кадры]
Аудио №1: русский / AC3 / 5.1 / 48 kHz / 640 kbps / |Авторский одноголосый, Ю.Сербин|
Аудио №2: английский / AC3 / 5.1 / 48 kHz / 640 kbps /
Субтитры: русские, английские
Навигация по главам(Чаптеры): есть
Продолжительность: 00:44:00
Автор рипа: Сообщество:

Format : Matroska
Format version : Version 2
File size : 3.47 GiB
Duration : 44mn 0s
Overall bit rate : 11.3 Mbps
Movie name : Hubble.(2010).BDRip.1080p.[denis100]
Encoded date : UTC 2016-07-09 06:51:17
Writing application : mkvmerge v5.8.0 ('No Sleep / Pillow') built on Sep 2 2012 15:37:04
Writing library : libebml v1.2.3 + libmatroska v1.3.0
Video
ID : 1
Format : AVC
Format/Info : Advanced Video Codec
Format profile : High@L4.1
Format settings, CABAC : Yes
Format settings, ReFrames : 4 frames
Codec ID : V_MPEG4/ISO/AVC
Duration : 44mn 0s
Bit rate : 10 000 Kbps
Width : 1 920 pixels
Height : 1 080 pixels
Display aspect ratio : 16:9
Frame rate : 23.976 fps
Color space : YUV
Chroma subsampling : 4:2:0
Bit depth : 8 bits
Scan type : Progressive
Bits/(Pixel*Frame) : 0.201
Stream size : 3.01 GiB (87%)
Title : Hubble.(2010).BDRip.1080p.[denis100]
Writing library : x264 core 148 r2692 64f4e24
Encoding settings : cabac=1 / ref=4 / deblock=1:-3:-3 / analyse=0x3:0x133 / me=umh / subme=11 / psy=1 / psy_rd=1.00:0.05 / mixed_ref=1 / me_range=32 / chroma_me=1 / trellis=2 / 8x8dct=1 / cqm=0 / deadzone=21,11 / fast_pskip=0 / chroma_qp_offset=-3 / threads=6 / lookahead_threads=1 / sliced_threads=0 / nr=0 / decimate=1 / interlaced=0 / bluray_compat=0 / constrained_intra=0 / bframes=6 / b_pyramid=2 / b_adapt=2 / b_bias=0 / direct=3 / weightb=1 / open_gop=0 / weightp=2 / keyint=240 / keyint_min=23 / scenecut=40 / intra_refresh=0 / rc=2pass / mbtree=0 / bitrate=10000 / ratetol=1.0 / qcomp=0.60 / qpmin=0 / qpmax=69 / qpstep=4 / cplxblur=20.0 / qblur=0.5 / ip_ratio=1.40 / pb_ratio=1.30 / aq=2:0.90
Language : English
Default : Yes
Forced : No
Audio #1
ID : 2
Format : AC-3
Format/Info : Audio Coding 3
Mode extension : CM (complete main)
Codec ID : A_AC3
Duration : 44mn 0s
Bit rate mode : Constant
Bit rate : 640 Kbps
Channel(s) : 6 channels
Channel positions : Front: L C R, Side: L R, LFE
Sampling rate : 48.0 KHz
Bit depth : 16 bits
Compression mode : Lossy
Stream size : 201 MiB (6%)
Title : AVO, Ю.Сербин
Language : Russian
Default : Yes
Forced : No
Audio #2
ID : 3
Format : AC-3
Format/Info : Audio Coding 3
Mode extension : CM (complete main)
Codec ID : A_AC3
Duration : 44mn 0s
Bit rate mode : Constant
Bit rate : 640 Kbps
Channel(s) : 6 channels
Channel positions : Front: L C R, Side: L R, LFE
Sampling rate : 48.0 KHz
Bit depth : 16 bits
Compression mode : Lossy
Stream size : 201 MiB (6%)
Language : English
Default : No
Forced : No
Text #1
ID : 4
Format : UTF-8
Codec ID : S_TEXT/UTF8
Codec ID/Info : UTF-8 Plain Text
Language : Russian
Default : No
Forced : No
Text #2
ID : 5
Format : UTF-8
Codec ID : S_TEXT/UTF8
Codec ID/Info : UTF-8 Plain Text
Language : English
Default : No
Forced : No
Menu
00:00:00.000 : en:00:00:00.000
00:09:57.596 : en:00:09:57.596
00:20:22.679 : en:00:20:22.679
00:30:20.902 : en:00:30:20.902
00:42:01.227 : en:00:42:01.227
x264 [info]: frame I:325 Avg QP:13.58 size:258452
x264 [info]: frame P:15929 Avg QP:16.15 size: 97368
x264 [info]: frame B:47058 Avg QP:17.98 size: 35404



   Похожие торренты   Торрент   Размер 
В этой теме нет новых непрочитанных сообщений. Телескоп Хаббл / IMAX: Hubble (2010) BDRip (1080p) от ExKinoRay

1 | 2

2 ГБ

В этой теме нет новых непрочитанных сообщений. Телескоп Хаббл / IMAX: Hubble (2010) BDRemux 1080p

9 | 1

8.65 ГБ

В этой теме нет новых непрочитанных сообщений. Телескоп Хаббл в 3Д / IMAX: Hubble 3D (2010) BD3D 1080p | 3D-Video | Custom

86 | 33

23.27 ГБ

В этой теме нет новых непрочитанных сообщений. Телескоп Хаббл / IMAX: Hubble (2010) BDRip 720p

6 | 5

2.31 ГБ

В этой теме нет новых непрочитанных сообщений. Телескоп Хаббл / IMAX: Hubble (2010) BDRip от ExKinoRay

0 | 1

700.82 МБ

В этой теме нет новых непрочитанных сообщений. Телескоп Хаббл в 2D / IMAX: Hubble 2D (2010) BDRip-AVC 720p

1 | 1

1.05 ГБ

В этой теме нет новых непрочитанных сообщений. Телескоп Хаббл в 3D / IMAX: Hubble 3D (2010) BDRip от NovaLan | 3D-Video

1 | 2

697.76 МБ




Вы не можете начинать темы
Вы не можете отвечать на сообщения
Вы не можете редактировать свои сообщения
Вы не можете удалять свои сообщения
Вы не можете добавлять вложения

Перейти:  
Для Мосгорсуда, Роскомнадзора и рекламодателей: mosgorsud-torrent[собачка]yandex.ru
 Вход
ppkBB3cker v.2 © 2008-2014 @ PPK
[ Time : 0.549s | 16 Queries | GZIP : Off ]

Торрент трекер RUTOR.IN, Не можете зайти на rutor.org? Какой новый адрес рутор? Какое зеркало рутор? Не работает rutor.org и зеркала? Тогда наш торрент специально для вас. Rutor.in неофициальное зеркало rutor. В случае если у Вас заблокирован rutor или вдруг Вы не можете на него зайти, то Вы без труда сможете скачать бесплатно и без рекламы последние новинки кино, игр, сериалов и прочего у нас, на Rutor.in. Не нужно использовать прокси, чтобы зайти на рутор, достаточно воспользоваться нашим ресурсом. Все новые фильмы, игры, сериалы, книги и музыка за 2013 и 2014 годы через торрент бесплатно. Скачивайте фильмы в хорошем качестве, игры для пк, xbox, playstation без регистрации. У нас вы найдете новые Зарубежные сериалы и Русские сериалы 2013, 2014, 2015 годов. Оставайтесь с нами, качайте любимые фильмы, игры, сериалы, книги и музыку.
cron