img image001 image001 image001 image001 image001 image001 image001 image001 image001 image001 image001 image001 image001 image001 image001

Planets Sun Sun Sun
Статистика раздачи
Автор: Nickolas3434 | Размер: 5.24 ГБ | Добавлен: 31 июл 2016
Раздают: 22    Качают: 7
Скачать торрент
Скачать торрент
Описание торрента

СообщениеДобавлено: 31 июл 2016 


Информация о фильме
Название: Столкновения с легендарными рыбами
Оригинальное название: CONTACT, avec des poissons légendaires
Страна: Франция
Студия: Tip Top Productions
Год выхода: 2010
Жанр: Документальный, рыбалка, путешествия, география, природа, приключения
О фильме:
"Контакт!" - слово, которое выкрикивает Франк Ирибарн в момент, когда добывает свой очередной трофей. Герой программы может позволить себе причуды, ведь он страстный любитель рыбалки, который не ищет легких путей. Франк ловит только самую крупную и необычную рыбу на водоёмах по всему миру, посещая Амазонку, Египет, Техас, Тайланд и другие регионы мира. В каждой серии программы Франк ловит новую рыбу - гигантского сома, щуку-маскинонга, реликтовую панцирную щуку, тайменя, тигровую рыбу, нильского окуня и даже гигантского змееголова.
Продолжительность: 00:60:00 серия
Перевод: Профессиональный (одноголосый)
Файл
Кодек: XviD
Качество: TVRip
Видео: 720x400 (16:9), 1457 Kbps, 25fps
Звук: MP3, 128 Kbps, 2 channels, 48.0 KHz
01. В этой серии программы рыболов Франк Ирибарн будет ловить багариевого сома в Индии.
02. В очередной серии программы рыболов Франк Ирибарн будет ловить знаменитого нильского окуня в Египте.
03. В этой серии программы рыболовный эксперт Франк Ирибарн направится в Таиланд на поиски легендарного змееголова.
04. В этой серии программы рыболов Франк Ирибарн будет ловить гигантского карпа в провинции Бин Эль Уидан в Марокко.
05. В очередной серии программы рыболов-эксперт Франк Ирибарн половит тайменя в Центральной Азии.
06. В очередной серии программы рыболов-эксперт Франк Ирибарн половит крупного сома во Франции.
07. Рыболов-эксперт Франк Ирибарн отправляется в очередное путешествие, в рамках которого он половит гвинейского окуня.
08. В новом путешествии рыболов-эксперт Франк Ирибарн половит щуку-маскинонга в Канаде.
General
Complete name : D:Столкновения с легендарными рыбамиСтолкновения с легендарными рыбами. Тайские змееголовы.avi
Format : AVI
Format/Info : Audio Video Interleave
File size : 670 MiB
Duration : 58mn 39s
Overall bit rate : 1 598 Kbps
Writing application : Lavf57.25.100
Video
ID : 0
Format : MPEG-4 Visual
Format profile : Advanced Simple@L5
Format settings, BVOP : 1
Format settings, QPel : No
Format settings, GMC : No warppoints
Format settings, Matrix : Default (H.263)
Codec ID : XVID
Codec ID/Hint : XviD
Duration : 58mn 39s
Bit rate : 1 457 Kbps
Width : 720 pixels
Height : 400 pixels
Display aspect ratio : 16:9
Frame rate : 25.000 fps
Color space : YUV
Chroma subsampling : 4:2:0
Bit depth : 8 bits
Scan type : Progressive
Compression mode : Lossy
Bits/(Pixel*Frame) : 0.202
Stream size : 611 MiB (91%)
Writing library : XviD 67
Audio
ID : 1
Format : MPEG Audio
Format version : Version 1
Format profile : Layer 3
Mode : Joint stereo
Mode extension : MS Stereo
Codec ID : 55
Codec ID/Hint : MP3
Duration : 58mn 39s
Bit rate mode : Constant
Bit rate : 128 Kbps
Channel(s) : 2 channels
Sampling rate : 48.0 KHz
Compression mode : Lossy
Stream size : 53.7 MiB (8%)
Alignment : Aligned on interleaves
Interleave, duration : 24 ms (0.60 video frame)



   Похожие торренты   Торрент   Размер 
В этой теме нет новых непрочитанных сообщений. Столкновения с легендарными рыбами / Contact, avec des poissons légendaires [01-12] (2010) TVRip

1 | 2

7.87 ГБ

В этой теме нет новых непрочитанных сообщений. Столкновения с легендарными рыбами / CONTACT, avec des poissons légendaires [01-03] (2010) TVRip

70 | 5

2.62 ГБ

В этой теме нет новых непрочитанных сообщений. Столкновения с легендарными рыбами / CONTACT, avec des poissons légendaires [01-03] (2010) TVRip

0 | 0

1.97 ГБ

В этой теме нет новых непрочитанных сообщений. Столкновения с легендарными рыбами / Contact, avec des poissons légendaires [01-06] (2010) TVRip

21 | 5

3.93 ГБ

В этой теме нет новых непрочитанных сообщений. Столкновения с легендарными рыбами / CONTACT, avec des poissons légendaires [01-03] (2010) TVRip

15 | 2

3.27 ГБ

В этой теме нет новых непрочитанных сообщений. Столкновения с легендарными рыбами / Contact, avec des poissons légendaires [01-07] (2010) TVRip

11 | 8

4.58 ГБ

В этой теме нет новых непрочитанных сообщений. Столкновения с легендарными рыбами / Contact, avec des poissons légendaires [01-10] (2010) TVRip

42 | 10

6.56 ГБ




Вы не можете начинать темы
Вы не можете отвечать на сообщения
Вы не можете редактировать свои сообщения
Вы не можете удалять свои сообщения
Вы не можете добавлять вложения

Перейти:  
Для Мосгорсуда, Роскомнадзора и рекламодателей: mosgorsud-torrent[собачка]yandex.ru
 Вход
ppkBB3cker v.2 © 2008-2014 @ PPK
[ Time : 0.517s | 14 Queries | GZIP : Off ]

Торрент трекер RUTOR.IN, Не можете зайти на rutor.org? Какой новый адрес рутор? Какое зеркало рутор? Не работает rutor.org и зеркала? Тогда наш торрент специально для вас. Rutor.in неофициальное зеркало rutor. В случае если у Вас заблокирован rutor или вдруг Вы не можете на него зайти, то Вы без труда сможете скачать бесплатно и без рекламы последние новинки кино, игр, сериалов и прочего у нас, на Rutor.in. Не нужно использовать прокси, чтобы зайти на рутор, достаточно воспользоваться нашим ресурсом. Все новые фильмы, игры, сериалы, книги и музыка за 2013 и 2014 годы через торрент бесплатно. Скачивайте фильмы в хорошем качестве, игры для пк, xbox, playstation без регистрации. У нас вы найдете новые Зарубежные сериалы и Русские сериалы 2013, 2014, 2015 годов. Оставайтесь с нами, качайте любимые фильмы, игры, сериалы, книги и музыку.