img image001 image001 image001 image001 image001 image001 image001 image001 image001 image001 image001 image001 image001 image001 image001

Planets Sun Sun Sun
Статистика раздачи
Автор: Nickolas3434 | Размер: 741.03 МБ | Добавлен: 30 июл 2016
Раздают: 177    Качают: 3
Скачать торрент
Скачать торрент
Описание торрента

СообщениеДобавлено: 30 июл 2016 

Информация о фильме
Название: Horizon. В поисках бессмертия
Оригинальное название: Horizon. The Immortalist
Год выхода: 2016
Жанр: Документальный
Режиссер: Тристан Квин
О фильме:
Сколько может прожить человек? Все ли ресурсы он использует? Как продлить его жизнь? В чем секрет долголетия? Чтобы найти ответы на эти вопросы - достаточно заглянуть в прошлое. Уже в древности люди пытались замедлить ход времени. И сейчас, возможно,.. Этот фильм - история о том, как русский интернет-миллионер Дмитрий Ицков, при помощи ультрасовременной науки, пытается раскрыть тайну вечной жизни.
Страна: Великобритания
Студия: BBC
Продолжительность: 00:51:45
Перевод: Профессиональный (одноголосый, закадровый)
Файл
Кодек: XviD
Качество: HDTVRip
Видео: 720x400 (16:9), 25 fps, XviD, 1800 kbps avg, 0.250 bit/pixel
Аудио: 48 kHz, AC3 Dolby Digital, 2 ch, ~192 kbps
Релиз от
Автор Рипа: RockeT
General
Complete name : C:UsersDesktopФильмыBBC_Horizon_The Immortalist.HDTVRip.by RockeT [Virtus & KazTorrentS].avi
Format : AVI
Format/Info : Audio Video Interleave
File size : 741 MiB
Duration : 51mn 45s
Overall bit rate : 2 002 Kbps
Writing application : VirtualDubMod 1.5.10.3 | www.virtualdub-fr.org || (build 2550/release)
Writing library : VirtualDubMod build 2550/release
Video
ID : 0
Format : MPEG-4 Visual
Format profile : Advanced Simple@L5
Format settings, BVOP : 1
Format settings, QPel : No
Format settings, GMC : No warppoints
Format settings, Matrix : Default (MPEG)
Codec ID : XVID
Codec ID/Hint : XviD
Duration : 51mn 45s
Bit rate : 1 800 Kbps
Width : 720 pixels
Height : 400 pixels
Display aspect ratio : 16:9
Frame rate : 25.000 fps
Color space : YUV
Chroma subsampling : 4:2:0
Bit depth : 8 bits
Scan type : Progressive
Compression mode : Lossy
Bits/(Pixel*Frame) : 0.250
Stream size : 666 MiB (90%)
Writing library : XviD 1.2.1 (UTC 2008-12-04)
Audio
ID : 1
Format : AC-3
Format/Info : Audio Coding 3
Mode extension : CM (complete main)
Format settings, Endianness : Big
Codec ID : 2000
Duration : 51mn 45s
Bit rate mode : Constant
Bit rate : 192 Kbps
Channel(s) : 2 channels
Channel positions : Front: L R
Sampling rate : 48.0 KHz
Compression mode : Lossy
Stream size : 71.1 MiB (10%)
Alignment : Split accross interleaves
Interleave, duration : 40 ms (1.00 video frame)
Interleave, preload duration : 500 ms




   Похожие торренты   Торрент   Размер 
В этой теме нет новых непрочитанных сообщений. BBC: Horizon. Как устроен ЦЕРН. Спецвыпуск / Inside CERN: A Horizon Special (2016) HDTVRip от Kaztorrents | P1

40 | 3

720.07 МБ

В этой теме нет новых непрочитанных сообщений. BBC: Horizon. Электронные сигареты: чудо или угроза? / Horizon. E-Cigarettes: Miracle or Menace? (2016) HDTVRip от Kaztorrents | L1

495 | 13

803.15 МБ

В этой теме нет новых непрочитанных сообщений. BBC: Horizon. Проект Гринглоу. В поисках контроля гравитации / Project Greenglow. The Quest for Gravity control (2016) HDTVRip от Kaztorrents | P2

70 | 7

719.66 МБ

В этой теме нет новых непрочитанных сообщений. BBC: Horizon. Почему мы толстеем? / Why Are We Getting So Fat? (2016) HDTVRip от Kaztorrents | P2

16 | 1

676.79 МБ

В этой теме нет новых непрочитанных сообщений. BBC: Horizon. Лекарство от Альцгеймера / Curing Alzheimer's (2016) HDTVRip от Kaztorrents | P2

12 | 1

672.61 МБ

В этой теме нет новых непрочитанных сообщений. BBC: Horizon. Закат Солнечной системы / The End of The Solar System (2016) HDTVRip от Kaztorrents | P2

104 | 12

718.18 МБ

В этой теме нет новых непрочитанных сообщений. BBC: Horizon. Гибель океана? / Horizon. The Death of the Oceans? (2010) HDTVRip 720p | P1

32 | 41

1.98 ГБ




Вы не можете начинать темы
Вы не можете отвечать на сообщения
Вы не можете редактировать свои сообщения
Вы не можете удалять свои сообщения
Вы не можете добавлять вложения

Перейти:  
Для Мосгорсуда, Роскомнадзора и рекламодателей: mosgorsud-torrent[собачка]yandex.ru
 Вход
ppkBB3cker v.2 © 2008-2014 @ PPK
[ Time : 0.022s | 16 Queries | GZIP : Off ]

cron