img image001 image001 image001 image001 image001 image001 image001 image001 image001 image001 image001 image001 image001 image001 image001

Planets Sun Sun Sun
Статистика раздачи
Автор: Nickolas3434 | Размер: 4.38 ГБ | Добавлен: 05 авг 2016
Раздают: 164    Качают: 40
Скачать торрент
Скачать торрент
Описание торрента

СообщениеДобавлено: 05 авг 2016 


Информация о фильме
Название: BBC. Большой Барьерный риф с Дэвидом Аттенборо
Оригинальное название: Great Barrier Reef with David Attenborough
Год выхода: 2016
Жанр: Документальный, природа, фауна, исследование, океанология
Режиссер: Майкл Дэвис
Рассказчик: Дэвид Аттенборо
О фильме:
Хотите отправиться в захватывающее дух по красоте путешествие не отрываясь от мягкого, удобного дивана? Скорее берите с собой в путь что-нибудь повкуснее и вперед к новым вершинам подводного мира! Дэвид Аттенборо будет рад взять с собой в компанию пару-тройку лежебок, балласт на судне всегда может пригодиться, акулы не будут особо привередливы. Вместе с ведущим проекта, мы с Вами погрузимся в удивительный мир Большого Барьерного рифа. На судне Алюсия Дэвид приоткроет нам многие тайны этого удивительного уголка нашей планеты. Вы познакомитесь с историей рифа, сможете полюбоваться на многообразие различных видов жизни.
1. Строители / Builders


Страна: Великобритания
Студия: BBC Productions Salford
Продолжительность: 1 x ~ 00:58:00
Перевод: Профессиональный (одноголосый, закадровый) [студия «Омикрон»]
Файл
Кодек: AVC/H.264
Качество: BDRip 720p
Видео: 1280x720 (16:9), 25 fps, AVC (x264), High@L4.1, 7546 kbps, 25fps, 0.178 bit/pixel
Звук: 48 kHz, DTS, 6 ch, ~1509.00 kbps avg kbps avg | Русский | Профессиональный (одноголосый, закадровый) [студия «Омикрон»]
Звук: 48 kHz, DTS, 6 ch, ~1509.00 kbps avg kbps avg | Английский
Общее
Уникальный идентификатор : 246481147308357685725389781141780238093 (0xB96E8ACFC4F45BE6B0CDC27545490F0D)
Полное имя : Great.Barrier.Reef.with.David.Attenborough.S01E01.720p.BluRay.Rus.Eng.HDCLUBGreat.Barrier.Reef.with.David.Attenborough.S01E01.720p.BluRay.Rus.Eng.HDCLUB.mkv
Формат : Matroska
Версия формата : Version 2
Размер файла : 4,38 Гбайт
Продолжительность : 58 м.
Общий поток : 10,8 Мбит/сек
Дата кодирования : UTC 2016-07-27 12:38:26
Программа кодирования : mkvmerge v3.2.0 ('Beginnings') built on Feb 12 2010 16:46:17
Библиотека кодирования : libebml v0.7.9 + libmatroska v0.8.1
Видео
Идентификатор : 1
Формат : AVC
Формат/Информация : Advanced Video Codec
Профиль формата : High@L4.1
Параметр CABAC формата : Да
Параметр ReFrames формата : 9 кадров
Идентификатор кодека : V_MPEG4/ISO/AVC
Продолжительность : 58 м.
Битрейт : 7546 Кбит/сек
Ширина : 1280 пикселей
Высота : 720 пикселей
Соотношение сторон : 16:9
Режим частоты кадров : Постоянный
Частота кадров : 25,000 кадров/сек
Цветовое пространство : YUV
Субдискретизация насыщенности : 4:2:0
Битовая глубина : 8 бит
Тип развёртки : Прогрессивная
Бит/(Пиксели*Кадры) : 0.328
Размер потока : 3,07 Гбайт (70%)
Библиотека кодирования : x264 core 148 r2665 a01e339
Настройки программы : cabac=1 / ref=9 / deblock=1:-3:-3 / analyse=0x3:0x133 / me=umh / subme=11 / psy=1 / psy_rd=1.05:0.00 / mixed_ref=1 / me_range=32 / chroma_me=1 / trellis=2 / 8x8dct=1 / cqm=0 / deadzone=21,11 / fast_pskip=0 / chroma_qp_offset=-2 / threads=6 / lookahead_threads=1 / sliced_threads=0 / nr=0 / decimate=0 / interlaced=0 / bluray_compat=0 / constrained_intra=0 / bframes=12 / b_pyramid=2 / b_adapt=2 / b_bias=0 / direct=3 / weightb=1 / open_gop=0 / weightp=2 / keyint=250 / keyint_min=24 / scenecut=40 / intra_refresh=0 / rc_lookahead=60 / rc=crf / mbtree=0 / crf=16.6 / qcomp=0.65 / qpmin=0 / qpmax=69 / qpstep=4 / vbv_maxrate=38000 / vbv_bufsize=30000 / crf_max=0.0 / nal_hrd=none / filler=0 / ip_ratio=1.30 / pb_ratio=1.20 / aq=1:0.75
Язык : English
Default : Нет
Forced : Нет
Цветовой диапазон : Limited
Коэффициенты матрицы : BT.709
Statistics Tags Issue : mkvmerge v8.8.0 ('Wind at my back') 64bit 2016-02-06 10:54:07 / mkvmerge v3.2.0 ('Beginnings') built on Feb 12 2010 16:46:17 2016-07-27 12:38:26
FromStats_BitRate : 7757298
FromStats_Duration : 00:58:10.760000000
FromStats_FrameCount : 87269
FromStats_StreamSize : 3384858342
Аудио #1
Идентификатор : 2
Формат : DTS
Формат/Информация : Digital Theater Systems
Профиль формата : ES Matrix / Core
Режим : 16
Параметр Endianness формата : Big
Идентификатор кодека : A_DTS
Продолжительность : 58 м.
Вид битрейта : Постоянный
Битрейт : 1509 Кбит/сек
Каналы : 7 каналов / 6 каналов
Расположение каналов : Front: L C R, Side: L R, Back: C, LFE / Front: L C R, Side: L R, LFE
Частота : 48,0 КГц
Частота кадров : 93,750 кадра/сек (512 spf)
Битовая глубина : 16 бит
Метод сжатия : С потерями
Размер потока : 628 Мбайт (14%)
Заголовок : DTS 5.1 @ 1536 kbps - Одноголосый закадровый, студия "Омикрон"
Язык : Russian
Default : Да
Forced : Нет
Аудио #2
Идентификатор : 3
Формат : DTS
Формат/Информация : Digital Theater Systems
Профиль формата : ES Discrete / Core
Режим : 16
Параметр Endianness формата : Big
Идентификатор кодека : A_DTS
Продолжительность : 58 м.
Вид битрейта : Постоянный
Битрейт : 1509 Кбит/сек
Каналы : 7 каналов / 6 каналов
Расположение каналов : Front: L C R, Side: L R, Back: C, LFE / Front: L C R, Side: L R, LFE
Частота : 48,0 КГц
Частота кадров : 93,750 кадра/сек (512 spf)
Битовая глубина : 16 бит
Метод сжатия : С потерями
Размер потока : 628 Мбайт (14%)
Заголовок : DTS 5.1 @ 1536 kbps
Язык : English
Default : Нет
Forced : Нет
Меню
00:00:00.000 : en:00:00:00.000
00:07:03.400 : en:00:07:03.400
00:16:49.760 : en:00:16:49.760
00:26:45.880 : en:00:26:45.880
00:38:21.960 : en:00:38:21.960
00:49:31.960 : en:00:49:31.960

Релиз от:



   Похожие торренты   Торрент   Размер 
В этой теме нет новых непрочитанных сообщений. BBC. Большой Барьерный риф с Дэвидом Аттенборо / Great Barrier Reef with David Attenborough [01 из 03] (2016) BDRip 720p | P

13 | 3

12.64 ГБ

В этой теме нет новых непрочитанных сообщений. BBC. Большой Барьерный риф с Дэвидом Аттенборо / Great Barrier Reef with David Attenborough [01-03 из 03] (2016) BDRip 1080p | P

32 | 8

27.26 ГБ

В этой теме нет новых непрочитанных сообщений. Большой Барьерный риф / Great Barrier Reef [01-03 из 03] (2011) BDRip 720p

0 | 2

9.35 ГБ

В этой теме нет новых непрочитанных сообщений. Большой Барьерный риф / Great Barrier Reef [01-03 из 03] (2011) BDRip 1080p

1 | 18

17.59 ГБ

В этой теме нет новых непрочитанных сообщений. Большой Барьерный риф / Great Barrier Reef [01-03 из 03] (2011) HDRip

13 | 4

2.96 ГБ

В этой теме нет новых непрочитанных сообщений. Крылатые монстры с Дэвидом Аттенборо / Flying Monsters with David Attenborough (2011) BDRip-AVC

37 | 4

1.03 ГБ

В этой теме нет новых непрочитанных сообщений. Крылатые монстры с Дэвидом Аттенборо / Flying Monsters with David Attenborough (2011) BDRip

0 | 6

3.28 ГБ




Вы не можете начинать темы
Вы не можете отвечать на сообщения
Вы не можете редактировать свои сообщения
Вы не можете удалять свои сообщения
Вы не можете добавлять вложения

Перейти:  
Для Мосгорсуда, Роскомнадзора и рекламодателей: mosgorsud-torrent[собачка]yandex.ru
 Вход
ppkBB3cker v.2 © 2008-2014 @ PPK
[ Time : 0.027s | 14 Queries | GZIP : Off ]

Торрент трекер RUTOR.IN, Не можете зайти на rutor.org? Какой новый адрес рутор? Какое зеркало рутор? Не работает rutor.org и зеркала? Тогда наш торрент специально для вас. Rutor.in неофициальное зеркало rutor. В случае если у Вас заблокирован rutor или вдруг Вы не можете на него зайти, то Вы без труда сможете скачать бесплатно и без рекламы последние новинки кино, игр, сериалов и прочего у нас, на Rutor.in. Не нужно использовать прокси, чтобы зайти на рутор, достаточно воспользоваться нашим ресурсом. Все новые фильмы, игры, сериалы, книги и музыка за 2013 и 2014 годы через торрент бесплатно. Скачивайте фильмы в хорошем качестве, игры для пк, xbox, playstation без регистрации. У нас вы найдете новые Зарубежные сериалы и Русские сериалы 2013, 2014, 2015 годов. Оставайтесь с нами, качайте любимые фильмы, игры, сериалы, книги и музыку.