img image001 image001 image001 image001 image001 image001 image001 image001 image001 image001 image001 image001 image001 image001 image001

Planets Sun Sun Sun
Статистика раздачи
Автор: PriZraK | Размер: 803.15 МБ | Добавлен: 11 авг 2016
Раздают: 495    Качают: 13
Скачать торрент
Скачать торрент
Описание торрента

СообщениеДобавлено: 11 авг 2016 

Информация о фильме
Название: Horizon. Электронные сигареты: чудо или угроза?
Оригинальное название: Horizon. E-Cigarettes: Miracle or Menace?
Год выхода: 2016
Жанр: Документальный
Режиссер: Эмма Хатхерлей
О фильме:
Телеканал BBC снял потрясающую документалку затрагивающую всевозможные аспекты вейпинга, авторы фильма попытаются разобраться и найти ответы на самые животрепещущие вопросы связанные с использованием электронных сигарет. Каковы побочные эффекты длительного использования электронных сигарет? Есть ли разница между никотиновой зависимостью возникающей при курении обычных сигарет, и зависимостью вызванной парением никотино содержащих жидкостей? Является ли электронная сигарета величайшим изобретением способным оздоровить человечество, или наоборот — вейпинг только закрепит и усилит никотиновую зависимость? Журналисты вместе с учёными проведут ряд экспериментов, в ходе которых несколько контрольных групп из добровольцев попробуют избавиться от табачной зависимости разными способами, отказ от курения, никотинзаместительная терапия, и электронные сигареты. А в ходе другого эксперимента, ведущий программы не разу не куривший обычных сигарет, будет в течении длительного времени парить электронные сигареты с никотином, по графику составленному врачом наркологом, с целью добиться эффекта никотиновой зависимости. Вы узнаете мнение токсиколога о вредных веществах в составе ароматизаторов жидкости, могут ли ароматизаторы использующиеся в пищевой промышленности быть так же безопасными при вдыхании их паров? Насколько опасны последствия пассивного парения, в сравнении с пассивным курением, и как воздействуют пары электронной сигареты на окружающих, существует ли вообще такое понятие как пассивное парение?
Страна: Великобритания
Студия: BBC
Продолжительность: 00:59:03
Перевод: Любительский (одноголосый, закадровый)
Файл
Кодек: XviD
Качество: HDTVRip
Видео: 720x400 (16:9), 25 fps, XviD, 1700 kbps avg, 0.236 bit/pixel
Аудио: 48 kHz, AC3 Dolby Digital, 2 ch, ~192 kbps
Релиз от
Автор Рипа: RockeT
General
Complete name : C:UsersDesktopФильмыBBC_Horizon_E-Cigarettes_Miracle or Menace.HDTVRip.by RockeT [Virtus & KazTorrentS].avi
Format : AVI
Format/Info : Audio Video Interleave
File size : 803 MiB
Duration : 59mn 3s
Overall bit rate : 1 902 Kbps
Writing application : VirtualDubMod 1.5.10.3 | www.virtualdub-fr.org || (build 2550/release)
Writing library : VirtualDubMod build 2550/release
Video
ID : 0
Format : MPEG-4 Visual
Format profile : Advanced Simple@L5
Format settings, BVOP : 1
Format settings, QPel : No
Format settings, GMC : No warppoints
Format settings, Matrix : Default (MPEG)
Codec ID : XVID
Codec ID/Hint : XviD
Duration : 59mn 3s
Bit rate : 1 700 Kbps
Width : 720 pixels
Height : 400 pixels
Display aspect ratio : 16:9
Frame rate : 25.000 fps
Color space : YUV
Chroma subsampling : 4:2:0
Bit depth : 8 bits
Scan type : Progressive
Compression mode : Lossy
Bits/(Pixel*Frame) : 0.236
Stream size : 718 MiB (89%)
Writing library : XviD 1.2.1 (UTC 2008-12-04)
Audio
ID : 1
Format : AC-3
Format/Info : Audio Coding 3
Mode extension : CM (complete main)
Format settings, Endianness : Big
Codec ID : 2000
Duration : 59mn 3s
Bit rate mode : Constant
Bit rate : 192 Kbps
Channel(s) : 2 channels
Channel positions : Front: L R
Sampling rate : 48.0 KHz
Compression mode : Lossy
Stream size : 81.1 MiB (10%)
Alignment : Split accross interleaves
Interleave, duration : 40 ms (1.00 video frame)
Interleave, preload duration : 500 ms




   Похожие торренты   Торрент   Размер 
В этой теме нет новых непрочитанных сообщений. BBC: Horizon. В поисках бессмертия / Horizon. The Immortalist (2016) HDTVRip от Kaztorrents | P1

177 | 3

741.03 МБ

В этой теме нет новых непрочитанных сообщений. BBC: Horizon. Почему мы толстеем? / Why Are We Getting So Fat? (2016) HDTVRip от Kaztorrents | P2

133 | 8

676.79 МБ

В этой теме нет новых непрочитанных сообщений. BBC: Horizon. Лекарство от Альцгеймера / Curing Alzheimer's (2016) HDTVRip от Kaztorrents | P2

73 | 4

672.61 МБ

В этой теме нет новых непрочитанных сообщений. BBC: Horizon. Гибель океана? / Horizon. The Death of the Oceans? (2010) HDTVRip 720p | P1

32 | 41

1.98 ГБ

В этой теме нет новых непрочитанных сообщений. BBC Horizon. Миссия на Марс / BBC Horizon. Mission To Mars (2012) HDTVRip-AVC от F-Torrents

10 | 3

863.91 МБ

В этой теме нет новых непрочитанных сообщений. BBC. Horizon: Выжить в автокатастрофе / Horizon. Surviving a Car Crash (2011) HDTVRip 720p

223 | 11

1.81 ГБ

В этой теме нет новых непрочитанных сообщений. BBC Horizon: Что такое реальность? / BBC Horizon: What Is Reality ? (2011) HDTVRip-AVC от F-Torrents

54 | 2

850.4 МБ




Вы не можете начинать темы
Вы не можете отвечать на сообщения
Вы не можете редактировать свои сообщения
Вы не можете удалять свои сообщения
Вы не можете добавлять вложения

Перейти:  
Для Мосгорсуда, Роскомнадзора и рекламодателей: mosgorsud-torrent[собачка]yandex.ru
 Вход
ppkBB3cker v.2 © 2008-2014 @ PPK
[ Time : 0.054s | 15 Queries | GZIP : Off ]

Торрент трекер RUTOR.IN, Не можете зайти на rutor.org? Какой новый адрес рутор? Какое зеркало рутор? Не работает rutor.org и зеркала? Тогда наш торрент специально для вас. Rutor.in неофициальное зеркало rutor. В случае если у Вас заблокирован rutor или вдруг Вы не можете на него зайти, то Вы без труда сможете скачать бесплатно и без рекламы последние новинки кино, игр, сериалов и прочего у нас, на Rutor.in. Не нужно использовать прокси, чтобы зайти на рутор, достаточно воспользоваться нашим ресурсом. Все новые фильмы, игры, сериалы, книги и музыка за 2013 и 2014 годы через торрент бесплатно. Скачивайте фильмы в хорошем качестве, игры для пк, xbox, playstation без регистрации. У нас вы найдете новые Зарубежные сериалы и Русские сериалы 2013, 2014, 2015 годов. Оставайтесь с нами, качайте любимые фильмы, игры, сериалы, книги и музыку.