img image001 image001 image001 image001 image001 image001 image001 image001 image001 image001 image001 image001 image001 image001 image001

Planets Sun Sun Sun
Статистика раздачи
Автор: PriZraK | Размер: 707.66 МБ | Добавлен: 19 сен 2016
Раздают: 0    Качают: 0
Скачать торрент
Скачать торрент
Описание торрента

СообщениеДобавлено: 19 сен 2016 

Информация о фильме
Название: Глаза пустыни Атакама
Оригинальное название: Eyes of the Atacama
Год выхода: 2013
Жанр: Документальный
Режиссер: Аннетт Шеурих, Клаус Шеурих
О фильме:
Расположенная на севере Чили пустыня Атакама - далекое, негостеприимное место, напоминающее инопланетный пейзаж из научно-фантастического фильма. Здесь находится самая большая наземная обсерватория. Новейшие телескопы вглядываются в далекие туманности космоса. Они следят за рождением и гибелью звезд и планет.
Страна: Австрия
Студия: Terra Mater Productions GmbH
Продолжительность: 00:52:01
Перевод: Профессиональный (двухголосый), СВ-Дубль
Файл
Кодек: XviD
Качество: HDTVRip
Видео: 720x400 (16:9), 25 fps, XviD, 1700 kbps avg, 0.236 bit/pixel
Аудио: 48 kHz, AC3 Dolby Digital, 2 ch, ~192 kbps
Релиз от
Автор Рипа: RockeT
General
Complete name : C:UsersDesktopФильмыEyes of the Atacama.HDTVRip.by RockeT [KazTorrentS].avi
Format : AVI
Format/Info : Audio Video Interleave
File size : 708 MiB
Duration : 52mn 1s
Overall bit rate : 1 902 Kbps
Writing application : VirtualDubMod 1.5.10.3 | www.virtualdub-fr.org || (build 2550/release)
Writing library : VirtualDubMod build 2550/release
Video
ID : 0
Format : MPEG-4 Visual
Format profile : Advanced Simple@L5
Format settings, BVOP : 1
Format settings, QPel : No
Format settings, GMC : No warppoints
Format settings, Matrix : Default (MPEG)
Codec ID : XVID
Codec ID/Hint : XviD
Duration : 52mn 1s
Bit rate : 1 700 Kbps
Width : 720 pixels
Height : 400 pixels
Display aspect ratio : 16:9
Frame rate : 25.000 fps
Color space : YUV
Chroma subsampling : 4:2:0
Bit depth : 8 bits
Scan type : Progressive
Compression mode : Lossy
Bits/(Pixel*Frame) : 0.236
Stream size : 633 MiB (89%)
Writing library : XviD 1.2.1 (UTC 2008-12-04)
Audio
ID : 1
Format : AC-3
Format/Info : Audio Coding 3
Mode extension : CM (complete main)
Format settings, Endianness : Big
Codec ID : 2000
Duration : 52mn 1s
Bit rate mode : Constant
Bit rate : 192 Kbps
Channel(s) : 2 channels
Channel positions : Front: L R
Sampling rate : 48.0 KHz
Compression mode : Lossy
Stream size : 71.5 MiB (10%)
Alignment : Split accross interleaves
Interleave, duration : 40 ms (1.00 video frame)
Interleave, preload duration : 500 ms




   Похожие торренты   Торрент   Размер 
В этой теме нет новых непрочитанных сообщений. 3x3 глаза / 3 X 3 Eyes / Sazan Eyes / 3x3 Eyes - Immortals / Sazan Aizu [OVA] [4 из 4] (1991) BDRip 720p | L1

75 | 21

2.2 ГБ

В этой теме нет новых непрочитанных сообщений. Глаза звезды / Звездные глаза / Starry Eyes (2014) WEB-DLRip от CINEMANIA | L2

1297 | 134

1.4 ГБ

В этой теме нет новых непрочитанных сообщений. Глаза змеи / Snake Eyes (1998) HDTVRip

136 | 4

1.46 ГБ

В этой теме нет новых непрочитанных сообщений. Глаза змеи / Snake Eyes (1998) HDTVRip-AVC от RuBit

33 | 28

1.46 ГБ

В этой теме нет новых непрочитанных сообщений. Глаза змеи / Snake Eyes (1998) HDTVRip 720p

5 | 4

4.67 ГБ

В этой теме нет новых непрочитанных сообщений. Глаза ангела / Ангельские глазки / Eyes of an Angel (1991) HDTVRip | P

14 | 2

1.36 ГБ

В этой теме нет новых непрочитанных сообщений. Глаза ангела / Eyes of an Angel (1991) HDTVRip 720p от ExKinoRay

7 | 1

2.48 ГБ




Вы не можете начинать темы
Вы не можете отвечать на сообщения
Вы не можете редактировать свои сообщения
Вы не можете удалять свои сообщения
Вы не можете добавлять вложения

Перейти:  
Для Мосгорсуда, Роскомнадзора и рекламодателей: mosgorsud-torrent[собачка]yandex.ru
 Вход
ppkBB3cker v.2 © 2008-2014 @ PPK
[ Time : 0.069s | 17 Queries | GZIP : Off ]

Торрент трекер RUTOR.IN, Не можете зайти на rutor.org? Какой новый адрес рутор? Какое зеркало рутор? Не работает rutor.org и зеркала? Тогда наш торрент специально для вас. Rutor.in неофициальное зеркало rutor. В случае если у Вас заблокирован rutor или вдруг Вы не можете на него зайти, то Вы без труда сможете скачать бесплатно и без рекламы последние новинки кино, игр, сериалов и прочего у нас, на Rutor.in. Не нужно использовать прокси, чтобы зайти на рутор, достаточно воспользоваться нашим ресурсом. Все новые фильмы, игры, сериалы, книги и музыка за 2013 и 2014 годы через торрент бесплатно. Скачивайте фильмы в хорошем качестве, игры для пк, xbox, playstation без регистрации. У нас вы найдете новые Зарубежные сериалы и Русские сериалы 2013, 2014, 2015 годов. Оставайтесь с нами, качайте любимые фильмы, игры, сериалы, книги и музыку.