img image001 image001 image001 image001 image001 image001 image001 image001 image001 image001 image001 image001 image001 image001 image001

Planets Sun Sun Sun
Статистика раздачи
Автор: PriZraK | Размер: 18.67 ГБ | Добавлен: 05 окт 2016
Раздают: 19    Качают: 8
Скачать торрент
Скачать торрент
Описание торрента

СообщениеДобавлено: 05 окт 2016 

Расследования авиакатастроф (14 сезон 10 серий из 10) / Air Crash Investigation

Год выпуска: 2016
Страна: США
Студия: National Geographic
Жанр: Документальный
Продолжительность: ~ 00:44:00
Перевод: Профессиональный (дублированный)
Описание: Пожалуй, найдется не так много людей, которые при посадке на борт авиалайнера не испытывали бы чувство страха. Большинство пассажиров каждый раз задается вопросом: а приземлимся ли мы вообще? Во время полета чутко реагируют на каждый толчок, крен и вибрацию – не случилось ли чего? В каждом странном попутчике мерещится террорист. Но приземлившись целыми и невредимыми, они быстро забывают о пережитом до следующего полета. Но есть и другие – те, кто испытал воображаемое в реальной жизни. Это чудом оставшиеся в живых свидетели авиакатастроф – пассажиры и члены экипажей. Попадание молнии или зенитной ракеты в корпус пассажирского самолета, отлетающие на ходу части корпуса, обнаруженные в воздухе неполадки двигателя, сбой работы приборов и бортового компьютера, столкновение, попадание в шторм, нахождение на борту террористов и угонщиков – вот неполный перечень кошмаров, с которыми пришлось столкнуться героям сериала. Из эпизода в эпизод авторы фильма проводят повторное расследование, выявляя причины той или иной катастрофы и инсценируя ситуацию, какой она могла быть за несколько минут до аварии. Благодаря этому можно оказаться в центре событий за секунды до начала трагедии… Испытать весь ужас и остаться в живых.
Тип релиза: HDTV 1080i
Контейнер: MKV
Видео: 1920x1080p (16:9); 25.000 fps; 5305 kbps
Аудио: Русский, AC3, 48 kHz, 2 ch, 192 Кбит/с
Официальный сайт ENG

Релиз Работа со звуком

Format : MatroskaFormat version : Version 4 / Version 2File size : 1.83 GiBDuration : 43mn 41sOverall bit rate : 5 993 KbpsEncoded date : UTC 2016-02-12 20:13:06Writing application : mkvmerge v7.8.0 ('River Man') 32bit built on Mar 27 2015 16:18:02Writing library : libebml v1.3.1 + libmatroska v1.4.2DURATION : 00:43:40.756000000NUMBER_OF_FRAMES : 81898NUMBER_OF_BYTES : 62897664_STATISTICS_WRITING_APP : mkvmerge v7.8.0 ('River Man') 32bit built on Mar 27 2015 16:18:02_STATISTICS_WRITING_DATE_UT : 2016-02-12 20:13:06_STATISTICS_TAGS : BPS DURATION NUMBER_OF_FRAMES NUMBER_OF_BYTES
VideoID : 1Format : AVCFormat/Info : Advanced Video CodecFormat profile : High@L4Format settings, CABAC : YesFormat settings, ReFrames : 3 framesCodec ID : V_MPEG4/ISO/AVCDuration : 43mn 41sBit rate : 5 682 KbpsWidth : 1 920 pixelsHeight : 1 080 pixelsDisplay aspect ratio : 16:9Frame rate mode : ConstantFrame rate : 25.000 fpsStandard : ComponentColor space : YUVChroma subsampling : 4:2:0Bit depth : 8 bitsScan type : InterlacedScan order : Top Field FirstBits/(Pixel*Frame) : 0.110Stream size : 1.73 GiB (95%)Language : EnglishDefault : NoForced : NoColor range : LimitedColor primaries : BT.709Transfer characteristics : BT.709Matrix coefficients : BT.709
AudioID : 2Format : AC-3Format/Info : Audio Coding 3Mode extension : CM (complete main)Format settings, Endianness : BigCodec ID : A_AC3Duration : 43mn 41sBit rate mode : ConstantBit rate : 192 KbpsChannel(s) : 2 channelsChannel positions : Front: L RSampling rate : 48.0 KHzCompression mode : LossyStream size : 60.0 MiB (3%)Language : EnglishDefault : NoForced : No
01.Фатальная передача (Fatal Transmission)
Столкновение частного самолёта и рейса United Express-5925 в 1996 году поставило следователей в тупик, но позже они смогли докопаться до истины.
02.Ужас в Сан-Франциско (Terror in San Francisco)
После крушения рейса 214 Asiana Airlines в Сан-Франциско следователи нашли причину, которая могла навредить и другим аэропортам.
03.Снежный ком (High Rise Catastrophe)
В 1992 году разбился рейс 1862 из Амстердама в Тель-Авив. Следователи нашли причину смертельной опасности, угрожающей каждому Boeing 747.
04.Смертельная доставка (Fatal Delivery)
Что привело к гибели грузового Boeing 747 около Дубая после того, как командир доложил о пожаре на борту?
05.Смертельная миссия (Deadly Mission)
DC-6 загадочным образом разбивается в 20 км от взлетной полосы вместе с Генеральным Секретарем ООН, у которого была секретная миссия в Африке.
06.На грани катастрофы (Edge Of Disaster)
Во время обычной остановки на норвежском острове Сторд рейс 670 Atlantic Airways загадочным образом попадает с взлетной полосы на набережную.
07.Роковая задержка (Deadly Delay)
Едва оторвавшись от взлетной полосы, рейс 5022 Spanair опрокинулся вправо и врезался в землю. На его борту было 172 человека.
08.Роковая ошибка (Fatal Focus)
Boeing 737 авиакомпании Garuda Indonesia садится в Джокьякарте, но выкатывается с ВПП на рисовое поле.
09.Катастрофа (Steep Impact)
Авария в Джорджии унесла жизнь 23 человек, включая астронавта и сенатора США, следователь ставит на кон карьеру, лишь бы докопаться до истины.
10.Кровавая баня в Сан-Паулу (Carnage In Sao Paulo)
Спустя секунды после взлёта борт 402 TAM Airlines врезается в жилой район и загорается, унося жизни 95 человек на борту и 4 на земле.



   Похожие торренты   Торрент   Размер 
В этой теме нет новых непрочитанных сообщений. Расследования авиакатастроф / Air Crash Investigation [16x03,05 из 10] (2016) HDTV 1080i

24 | 2

4.17 ГБ

В этой теме нет новых непрочитанных сообщений. Расследования авиакатастроф / Air Crash Investigation (2003-2012) HDTV 1080i

5 | 43

90.49 ГБ

В этой теме нет новых непрочитанных сообщений. Расследования авиакатастроф / Air Crash Investigation (2003-2012) HDTV 1080i

1 | 2

54.84 ГБ

В этой теме нет новых непрочитанных сообщений. Расследования авиакатастроф / Air Crash Investigation [S08] (2011) HDTVRip 1080i

14 | 5

20.02 ГБ

В этой теме нет новых непрочитанных сообщений. Расследования авиакатастроф / Air Crash Investigation (2003-2012) SATRip

308 | 304

56.58 ГБ

В этой теме нет новых непрочитанных сообщений. Расследования авиакатастроф / Air Crash Investigation (2003-2012) SATRip

13 | 42

64.99 ГБ

В этой теме нет новых непрочитанных сообщений. Расследования авиакатастроф / Air Crash Investigation (2003-2012) HDTVRip 720p

27 | 190

80.05 ГБ




Вы не можете начинать темы
Вы не можете отвечать на сообщения
Вы не можете редактировать свои сообщения
Вы не можете удалять свои сообщения
Вы не можете добавлять вложения

Перейти:  
Для Мосгорсуда, Роскомнадзора и рекламодателей: mosgorsud-torrent[собачка]yandex.ru
 Вход
ppkBB3cker v.2 © 2008-2014 @ PPK
[ Time : 0.032s | 15 Queries | GZIP : Off ]

Торрент трекер RUTOR.IN, Не можете зайти на rutor.org? Какой новый адрес рутор? Какое зеркало рутор? Не работает rutor.org и зеркала? Тогда наш торрент специально для вас. Rutor.in неофициальное зеркало rutor. В случае если у Вас заблокирован rutor или вдруг Вы не можете на него зайти, то Вы без труда сможете скачать бесплатно и без рекламы последние новинки кино, игр, сериалов и прочего у нас, на Rutor.in. Не нужно использовать прокси, чтобы зайти на рутор, достаточно воспользоваться нашим ресурсом. Все новые фильмы, игры, сериалы, книги и музыка за 2013 и 2014 годы через торрент бесплатно. Скачивайте фильмы в хорошем качестве, игры для пк, xbox, playstation без регистрации. У нас вы найдете новые Зарубежные сериалы и Русские сериалы 2013, 2014, 2015 годов. Оставайтесь с нами, качайте любимые фильмы, игры, сериалы, книги и музыку.