img image001 image001 image001 image001 image001 image001 image001 image001 image001 image001 image001 image001 image001 image001 image001

Planets Sun Sun Sun
Статистика раздачи
Автор: PriZraK | Размер: 3.07 ГБ | Добавлен: 13 ноя 2016
Раздают: 46    Качают: 9
Скачать торрент
Скачать торрент
Описание торрента

СообщениеДобавлено: 13 ноя 2016 

Информация о фильме
Название: Зеленая планета
Оригинальное название: The Green Planet ( Das grüne Wunder - Unser Wald )
Год выхода: 2012
Жанр: видовой, флора, фауна
Режиссер: Жан Хафт / Jan Haft
О фильме:
Леса занимают 30 процентов поверхности Земли, но мы до сих пор мало что о них знаем. «Зеленая планета» позволит нам приблизиться к этому загадочному и волшебному миру. Режиссер Ян Хафт и его команда покажут истории лесных жителей, от грациозных оленей до хитрых лисиц и диких кабанов.

Страна: Германия
Студия: Natural History Germany, Nautilusfilm, NDR Naturfilm, Polyband GmbH, Studio Hamburg Doclights Produktion
Продолжительность: 01:30:04
Перевод: Профессиональный одноголосый
Файл
Кодек: AVC/H.264
Качество: BDRip 720p
Видео: 1280x720 (16:9), 25 fps, AVC (x264), High@L4.1, ~4500 Kbps, 25fps
Аудио 1: Русский 48 kHz, AC3, 2 ch, ~192.00 kbps
Аудио 2: Английский 48 kHz, AC3, 2 ch, ~192.00 kbps
General
Unique ID : 316175067064942250099025183813225477858 (0xEDDD1A59CF85894FBA69CCC5C350F6E2)
Complete name : F:СериалыЗеленая планета.(2012).BLU-RAY.720p.[-=DoMiNo=-].mkv
Format : Matroska
Format version : Version 4 / Version 2
File size : 3.07 GiB
Duration : 1 h 30 min
Overall bit rate : 4 875 kb/s
Movie name : Зеленая планета
Deion : Леса занимают 30 процентов поверхности Земли, но мы до сих пор мало что о них знаем. «Зеленая планета» позволит нам приблизиться к этому загадочному и волшебному миру. Режиссер Ян Хафт и его команда покажут истории лесных жителей, от грациозных оленей до хитрых лисиц и диких кабанов.
Writing application : XviD4PSP 7.0.314 DAILY
Writing library : Lavf57.41.100 / Lavf57.41.100
Attachments : poster.jpg
ACTORS : Бенно Фюрман
COMPOSER : Зигги Мюллер, Йорг Магнус Пфайль
COUNTRY : Германия
DATE : 2012
DIRECTOR : Жан Хафт
ENCODING_INFO : MATROSKA,WEBM > MKV Произвольный / H264 > X264 VBR-2P 4500kbps Произвольный / DTS-HD MA > AC3 CBR 192kbps / MP2 > AC3 CBR 192kbps
GENRE : документальный
HD_VIDEO : 1
IMDB_RATING : 7.80
ITUNEXTC : ru-movie|0+|100|
MEDIA_TYPE : 9
ORIGINAL_ACTORS : Benno Fürmann
ORIGINAL_TITLE : Das grüne Wunder - Unser Wald
PRODUCER : Жан Хафт, Мелани Хафт, Йёрн Рёвер, Светлана Винкель
RATING : 7.905
SYNOPSIS : Леса занимают 30 процентов поверхности Земли, но мы до сих пор мало что о них знаем. «Зеленая планета» позволит нам приблизиться к этому загадочному и волшебному миру. Режиссер Ян Хафт и его команда покажут истории лесных жителей, от грациозных оленей до хитрых лисиц и диких кабанов.
WRITER : Жан Хафт, Гервиг Лавицки, Йёрн Рёвер
Video
ID : 1
Format : AVC
Format/Info : Advanced Video Codec
Format profile : High@L4.1
Format settings, CABAC : Yes
Format settings, ReFrames : 8 frames
Codec ID : V_MPEG4/ISO/AVC
Bit rate : 4 500 kb/s
Width : 1 280 pixels
Height : 720 pixels
Display aspect ratio : 16:9
Frame rate mode : Variable
Original frame rate : 25.000 FPS
Color space : YUV
Chroma subsampling : 4:2:0
Bit depth : 8 bits
Scan type : Progressive
Bits/(Pixel*Frame) : 0.195
Title : Das grüne Wunder.BLU-RAY.720p.[-=DoMiNo=-]
Writing library : x264 core 148 r2721M 72d53ab
Encoding settings : cabac=1 / ref=8 / deblock=1:-3:-3 / analyse=0x3:0x133 / me=umh / subme=11 / psy=1 / psy_rd=1.00:0.10 / mixed_ref=1 / me_range=32 / chroma_me=1 / trellis=2 / 8x8dct=1 / cqm=0 / deadzone=21,11 / fast_pskip=0 / chroma_qp_offset=-3 / threads=5 / lookahead_threads=1 / sliced_threads=0 / nr=0 / decimate=1 / interlaced=0 / bluray_compat=0 / constrained_intra=0 / bframes=7 / b_pyramid=2 / b_adapt=2 / b_bias=0 / direct=3 / weightb=1 / open_gop=0 / weightp=2 / keyint=250 / keyint_min=25 / scenecut=40 / intra_refresh=0 / rc=2pass / mbtree=0 / bitrate=4500 / ratetol=1.0 / qcomp=0.60 / qpmin=0 / qpmax=69 / qpstep=4 / cplxblur=20.0 / qblur=0.5 / ip_ratio=1.40 / pb_ratio=1.30 / aq=1:1.00
Default : Yes
Forced : No
DURATION : 01:30:04.685000000
Audio #1
ID : 2
Format : AC-3
Format/Info : Audio Coding 3
Mode extension : CM (complete main)
Format settings, Endianness : Big
Codec ID : A_AC3
Duration : 1 h 30 min
Bit rate mode : Constant
Bit rate : 192 kb/s
Channel(s) : 2 channels
Channel positions : Front: L R
Sampling rate : 48.0 kHz
Frame rate : 31.250 FPS (1536 spf)
Bit depth : 16 bits
Compression mode : Lossy
Stream size : 124 MiB (4%)
Title : Rus
Language : Russian
Default : No
Forced : No
DURATION : 01:30:01.536000000
Audio #2
ID : 3
Format : AC-3
Format/Info : Audio Coding 3
Mode extension : CM (complete main)
Format settings, Endianness : Big
Codec ID : A_AC3
Duration : 1 h 30 min
Bit rate mode : Constant
Bit rate : 192 kb/s
Channel(s) : 2 channels
Channel positions : Front: L R
Sampling rate : 48.0 kHz
Frame rate : 31.250 FPS (1536 spf)
Bit depth : 16 bits
Compression mode : Lossy
Stream size : 124 MiB (4%)
Title : Eng
Language : English
Default : Yes
Forced : No
DURATION : 01:30:04.672000000
Menu
00:00:00.000 : :Глава 1
00:07:11.000 : :Глава 2
00:14:02.835 : :Глава 3
00:20:43.000 : :Глава 4
00:27:55.134 : :Глава 5
00:35:07.087 : :Глава 6
00:41:36.898 : :Глава 7
00:48:27.440 : :Глава 8
00:55:39.080 : :Глава 9
01:03:02.222 : :Глава 10
01:10:14.175 : :Глава 11
01:16:43.280 : :Глава 12
01:23:34.400 : :Глава 13



   Похожие торренты   Торрент   Размер 
В этой теме нет новых непрочитанных сообщений. Зеленая планета / The Green Planet / Das grüne Wunder - Unser Wald (2012) BDRip 1080p | P1

21 | 11

5.59 ГБ

В этой теме нет новых непрочитанных сообщений. Зеленая планета / The Green Planet / Das grüne Wunder - Unser Wald (2012) BDRemux 1080i | P1

4 | 2

15.36 ГБ

В этой теме нет новых непрочитанных сообщений. Зеленая планета / The Green Planet / Das grüne Wunder (2012) BDRip-AVC от NNNB | P1

35 | 0

2.18 ГБ

В этой теме нет новых непрочитанных сообщений. Застывшая планета / Замёрзшая планета / Frozen Planet [01-08 из 08] (2011) BDRip 720p от R.G.RealMT | A1

5 | 6

16.04 ГБ

В этой теме нет новых непрочитанных сообщений. Зелёная миля / The Green Mile (1999) BDRip 720p

3 | 3

8.04 ГБ

В этой теме нет новых непрочитанных сообщений. Зеленая комната / Green Room (2015) BDRip 720p | L

68 | 8

4.58 ГБ

В этой теме нет новых непрочитанных сообщений. Планета-океан / Planet Ocean (2012) BDRip 720p | Лицензия

8 | 2

6.74 ГБ




Вы не можете начинать темы
Вы не можете отвечать на сообщения
Вы не можете редактировать свои сообщения
Вы не можете удалять свои сообщения
Вы не можете добавлять вложения

Перейти:  
Для Мосгорсуда, Роскомнадзора и рекламодателей: mosgorsud-torrent[собачка]yandex.ru
 Вход
ppkBB3cker v.2 © 2008-2014 @ PPK
[ Time : 0.043s | 15 Queries | GZIP : On ]

Торрент трекер RUTOR.IN, Не можете зайти на rutor.org? Какой новый адрес рутор? Какое зеркало рутор? Не работает rutor.org и зеркала? Тогда наш торрент специально для вас. Rutor.in неофициальное зеркало rutor. В случае если у Вас заблокирован rutor или вдруг Вы не можете на него зайти, то Вы без труда сможете скачать бесплатно и без рекламы последние новинки кино, игр, сериалов и прочего у нас, на Rutor.in. Не нужно использовать прокси, чтобы зайти на рутор, достаточно воспользоваться нашим ресурсом. Все новые фильмы, игры, сериалы, книги и музыка за 2013 и 2014 годы через торрент бесплатно. Скачивайте фильмы в хорошем качестве, игры для пк, xbox, playstation без регистрации. У нас вы найдете новые Зарубежные сериалы и Русские сериалы 2013, 2014, 2015 годов. Оставайтесь с нами, качайте любимые фильмы, игры, сериалы, книги и музыку.