img image001 image001 image001 image001 image001 image001 image001 image001 image001 image001 image001 image001 image001 image001 image001

Planets Sun Sun Sun
Статистика раздачи
Автор: PriZraK | Размер: 5.59 ГБ | Добавлен: 13 ноя 2016
Раздают: 10    Качают: 3
Скачать торрент
Скачать торрент
Описание торрента

СообщениеДобавлено: 13 ноя 2016 

Информация о фильме
Название: Зеленая планета
Оригинальное название: The Green Planet ( Das grüne Wunder - Unser Wald )
Год выхода: 2012
Жанр: видовой, флора, фауна
Режиссер: Жан Хафт / Jan Haft
О фильме:
Леса занимают 30 процентов поверхности Земли, но мы до сих пор мало что о них знаем. «Зеленая планета» позволит нам приблизиться к этому загадочному и волшебному миру. Режиссер Ян Хафт и его команда покажут истории лесных жителей, от грациозных оленей до хитрых лисиц и диких кабанов.

Страна: Германия
Студия: Natural History Germany, Nautilusfilm, NDR Naturfilm, Polyband GmbH, Studio Hamburg Doclights Produktion
Продолжительность: 01:30:04
Перевод: Профессиональный одноголосый
Файл
Кодек: AVC/H.264
Качество: BDRip 1080p
Видео: 1920x1080 (16:9), 25 fps, AVC (x264), High@L4.1, ~8500 Kbps, 25fps
Аудио 1: Русский 48 kHz, AC3, 2 ch, ~192.00 kbps
Аудио 2: Английский 48 kHz, AC3, 2 ch, ~192.00 kbps
General
Unique ID : 233177929860664871581324149491824837987 (0xAF6C6F8D3D37B10BA155E9B362ABC563)
Complete name : F:Зеленая планета.(2012).BLU-RAY.1080p.[-=DoMiNo=-].mkv
Format : Matroska
Format version : Version 4 / Version 2
File size : 5.59 GiB
Duration : 1 h 30 min
Overall bit rate : 8 889 kb/s
Movie name : Зеленая планета
Deion : Леса занимают 30 процентов поверхности Земли, но мы до сих пор мало что о них знаем. «Зеленая планета» позволит нам приблизиться к этому загадочному и волшебному миру. Режиссер Ян Хафт и его команда покажут истории лесных жителей, от грациозных оленей до хитрых лисиц и диких кабанов.
Writing application : XviD4PSP 7.0.314 DAILY
Writing library : Lavf57.41.100 / Lavf57.41.100
Attachments : poster.jpg
ACTORS : Бенно Фюрман
COMPOSER : Зигги Мюллер, Йорг Магнус Пфайль
COUNTRY : Германия
DATE : 2012
DIRECTOR : Жан Хафт
ENCODING_INFO : MATROSKA,WEBM > MKV 1080p / H264 > X264 VBR-2P 8500kbps Произвольный / DTS-HD MA > AC3 CBR 192kbps / MP2 > AC3 CBR 192kbps
GENRE : документальный
HD_VIDEO : 1
IMDB_RATING : 7.80
ITUNEXTC : ru-movie|0+|100|
MEDIA_TYPE : 9
ORIGINAL_ACTORS : Benno Fürmann
ORIGINAL_TITLE : Das grüne Wunder - Unser Wald
PRODUCER : Жан Хафт, Мелани Хафт, Йёрн Рёвер, Светлана Винкель
RATING : 7.903
WRITER : Жан Хафт, Гервиг Лавицки, Йёрн Рёвер
Video
ID : 1
Format : AVC
Format/Info : Advanced Video Codec
Format profile : High@L4.1
Format settings, CABAC : Yes
Format settings, ReFrames : 4 frames
Codec ID : V_MPEG4/ISO/AVC
Bit rate : 8 500 kb/s
Width : 1 920 pixels
Height : 1 080 pixels
Display aspect ratio : 16:9
Frame rate mode : Variable
Original frame rate : 25.000 FPS
Color space : YUV
Chroma subsampling : 4:2:0
Bit depth : 8 bits
Scan type : Progressive
Bits/(Pixel*Frame) : 0.164
Title : Das grüne Wunder.BLU-RAY.720p.[-=DoMiNo=-]
Writing library : x264 core 148 r2721M 72d53ab
Encoding settings : cabac=1 / ref=4 / deblock=1:-3:-3 / analyse=0x3:0x113 / me=umh / subme=10 / psy=1 / psy_rd=1.00:0.10 / mixed_ref=1 / me_range=32 / chroma_me=1 / trellis=2 / 8x8dct=1 / cqm=0 / deadzone=21,11 / fast_pskip=0 / chroma_qp_offset=-3 / threads=5 / lookahead_threads=1 / sliced_threads=0 / nr=0 / decimate=1 / interlaced=0 / bluray_compat=0 / constrained_intra=0 / bframes=5 / b_pyramid=2 / b_adapt=2 / b_bias=0 / direct=3 / weightb=1 / open_gop=0 / weightp=2 / keyint=250 / keyint_min=25 / scenecut=40 / intra_refresh=0 / rc_lookahead=60 / rc=2pass / mbtree=1 / bitrate=8500 / ratetol=1.0 / qcomp=0.60 / qpmin=0 / qpmax=69 / qpstep=4 / cplxblur=20.0 / qblur=0.5 / ip_ratio=1.40 / aq=1:1.00
Default : Yes
Forced : No
DURATION : 01:30:04.685000000
Audio #1
ID : 2
Format : AC-3
Format/Info : Audio Coding 3
Mode extension : CM (complete main)
Format settings, Endianness : Big
Codec ID : A_AC3
Duration : 1 h 30 min
Bit rate mode : Constant
Bit rate : 192 kb/s
Channel(s) : 2 channels
Channel positions : Front: L R
Sampling rate : 48.0 kHz
Frame rate : 31.250 FPS (1536 spf)
Bit depth : 16 bits
Compression mode : Lossy
Stream size : 124 MiB (2%)
Title : Rus
Language : Russian
Default : No
Forced : No
DURATION : 01:30:01.536000000
Audio #2
ID : 3
Format : AC-3
Format/Info : Audio Coding 3
Mode extension : CM (complete main)
Format settings, Endianness : Big
Codec ID : A_AC3
Duration : 1 h 30 min
Bit rate mode : Constant
Bit rate : 192 kb/s
Channel(s) : 2 channels
Channel positions : Front: L R
Sampling rate : 48.0 kHz
Frame rate : 31.250 FPS (1536 spf)
Bit depth : 16 bits
Compression mode : Lossy
Stream size : 124 MiB (2%)
Title : Eng
Language : English
Default : Yes
Forced : No
DURATION : 01:30:04.672000000



   Похожие торренты   Торрент   Размер 
В этой теме нет новых непрочитанных сообщений. Зеленая планета / The Green Planet / Das grüne Wunder - Unser Wald (2012) BDRip 720p | P1

7 | 0

3.07 ГБ

В этой теме нет новых непрочитанных сообщений. Зеленая планета / The Green Planet / Das grüne Wunder - Unser Wald (2012) BDRemux 1080i | P1

0 | 0

15.36 ГБ

В этой теме нет новых непрочитанных сообщений. Зеленая планета / The Green Planet / Das grüne Wunder (2012) BDRip-AVC от NNNB | P1

23 | 0

2.18 ГБ

В этой теме нет новых непрочитанных сообщений. Зелёная миля / The Green Mile (1999) BDRip 1080p

163 | 21

11.54 ГБ

В этой теме нет новых непрочитанных сообщений. Зеленая миля / The Green Mile (1999) BDRip 1080p | 60FPS

20 | 9

42.92 ГБ

В этой теме нет новых непрочитанных сообщений. Зеленая комната / Green Room (2015) BDRip 1080p от HDReactor | А

224 | 10

7.08 ГБ

В этой теме нет новых непрочитанных сообщений. Зелёная комната / Green Room (2015) BDRip 1080p от ExKinoRay | A

42 | 8

9.01 ГБ




Вы не можете начинать темы
Вы не можете отвечать на сообщения
Вы не можете редактировать свои сообщения
Вы не можете удалять свои сообщения
Вы не можете добавлять вложения

Перейти:  
Для Мосгорсуда, Роскомнадзора и рекламодателей: mosgorsud-torrent[собачка]yandex.ru
 Вход
ppkBB3cker v.2 © 2008-2014 @ PPK
[ Time : 0.049s | 16 Queries | GZIP : Off ]

cron