img image001 image001 image001 image001 image001 image001 image001 image001 image001 image001 image001 image001 image001 image001 image001

Planets Sun Sun Sun
Статистика раздачи
Автор: PriZraK | Размер: 18.91 ГБ | Добавлен: 18 ноя 2016
Раздают: 13    Качают: 0
Скачать торрент
Скачать торрент
Описание торрента

СообщениеДобавлено: 18 ноя 2016 




Покорение неба 3D с Дэвидом Аттенборо
David Attenborough's Conquest of the Skies 3D



Год выпуска: 2014
Страна: Великобритания (Colossus Productions, Atlantic Productions, Sky TV)
Жанр: Документальный, Видовой
Общая продолжительность: 02:38:53
Озвучка: Одноголосая закадровая - Студия «Омикрон» (перевод - Виктор Петренко)
Режиссер: David Lee


Автор сценария и рассказчик на английском: Дэвид Аттенборо / David Attenborough



Описание: Способность летать является одним из величайших достижений природы. Более ста миллиардов существ парят в небе сегодня, от крошечной, питающейся нектаром колибри до защищённых бронёй жуков, причудливых крылатых ящериц и летучих мышей, охотящихся тёмной ночью и ориентирующихся с помощью ультразвука.
В Покорении небес 3D, Дэвид Аттенборо путешествует во времени, чтобы разгадать удивительную, 300-миллионолетнюю историю летающих животных. Кто были первые летающие существа, как они развивались, и как приспособились в огромном разнообразии воздухоплавателей, которые заполняют наше небо сегодня? Только теперь он может выяснить скрытую механику преодоления ими земного притяжения, используя передовые CGI-технологии, новейшие технологии съемки с высоким разрешением, и новаторский научный анализ.




Серии:
1. Первые летающие / The First to Fly (00:53:17)
2. Соперники / Rivals (00:52:29)
3. Триумф / Triumph (00:53:07)



Премьера (мир): 25 декабря 2014

За русскую дорогу спасибо и меценатам!




Качество: BDRip (by Ash61)
Контейнер: MKV
Формат 3D: Half OverUnder / Вертикальная анаморфная стереопара
Порядок ракурсов: левый ракурс первый


Видео: AVC / 23,976 fps / 1920х1080p / 15.4 Mbps; 16.6 Mbps; 14.2 Mbps
Аудио:
#1 - Русский / AC3 / 48 KHz / 5.1 ch / 640 Kbps (VO - «Омикрон»)
#2 - Английский / AC3 / 48 KHz / 5.1 ch / 640 Kbps (Original - BD 3D)
Субтитры Отсутствуют
General
Unique ID : 205152438373998174609459215718133729571 (0x9A56EC23E7771229AE6F6FCAEE470923)
Complete name : E:ConquestOfTheSkies(2014)3D-halfOU(Ash61)VOConquestOfTheSkies(E01)TheFirstToFly(2014)3D-halfOU(Ash61)VO.mkv
Format : Matroska
Format version : Version 2
File size : 6.34 GiB
Duration : 53mn 16s
Overall bit rate : 17.0 Mbps
Movie name : Покорение небес Дэвида Аттенборо (Э01) Первые летающие / David Attenborough's Conquest of the Skies (E01) The First to Fly (2014) в 3Д
Encoded date : UTC 2016-11-16 19:01:26
Writing application : mkvmerge v5.8.0 ('No Sleep / Pillow') built on Sep 2 2012 15:37:04
Writing library : libebml v1.2.3 + libmatroska v1.3.0
Video
ID : 1
Format : AVC
Format/Info : Advanced Video Codec
Format profile : High@L4.1
Format settings, CABAC : Yes
Format settings, ReFrames : 4 frames
Codec ID : V_MPEG4/ISO/AVC
Duration : 53mn 16s
Bit rate : 15.4 Mbps
Width : 1 920 pixels
Height : 1 080 pixels
Display aspect ratio : 16:9
Frame rate mode : Constant
Frame rate : 23.976 fps
Color space : YUV
Chroma subsampling : 4:2:0
Bit depth : 8 bits
Scan type : Progressive
Bits/(Pixel*Frame) : 0.310
Stream size : 5.74 GiB (90%)
Title : BDRip by Ash61
Writing library : x264 core 138 r2358 9e941d1
Encoding settings : cabac=1 / ref=4 / deblock=1:-3:-3 / analyse=0x3:0x113 / me=umh / subme=10 / psy=1 / psy_rd=1.00:0.00 / mixed_ref=1 / me_range=32 / chroma_me=1 / trellis=2 / 8x8dct=1 / cqm=0 / deadzone=21,11 / fast_pskip=1 / chroma_qp_offset=-2 / threads=12 / lookahead_threads=3 / sliced_threads=0 / nr=0 / decimate=1 / interlaced=0 / bluray_compat=0 / constrained_intra=0 / bframes=10 / b_pyramid=2 / b_adapt=2 / b_bias=0 / direct=3 / weightb=1 / open_gop=0 / weightp=2 / keyint=250 / keyint_min=23 / scenecut=40 / intra_refresh=0 / rc_lookahead=60 / rc=crf / mbtree=1 / crf=15.0 / qcomp=0.70 / qpmin=10 / qpmax=51 / qpstep=4 / vbv_maxrate=40000 / vbv_bufsize=30000 / crf_max=0.0 / nal_hrd=none / frame-packing=4 / ip_ratio=1.40 / aq=1:0.70
Language : English
Default : Yes
Forced : No
Audio #1
ID : 2
Format : AC-3
Format/Info : Audio Coding 3
Mode extension : CM (complete main)
Format settings, Endianness : Big
Codec ID : A_AC3
Duration : 53mn 16s
Bit rate mode : Constant
Bit rate : 640 Kbps
Channel(s) : 6 channels
Channel positions : Front: L C R, Side: L R, LFE
Sampling rate : 48.0 KHz
Bit depth : 16 bits
Compression mode : Lossy
Stream size : 244 MiB (4%)
Title : Одноголосый закадровый - Студия «Омикрон» (перевод - Виктор Петренко)
Language : Russian
Default : Yes
Forced : No
Audio #2
ID : 3
Format : AC-3
Format/Info : Audio Coding 3
Mode extension : CM (complete main)
Format settings, Endianness : Big
Codec ID : A_AC3
Duration : 53mn 16s
Bit rate mode : Constant
Bit rate : 640 Kbps
Channel(s) : 6 channels
Channel positions : Front: L C R, Side: L R, LFE
Sampling rate : 48.0 KHz
Bit depth : 16 bits
Compression mode : Lossy
Stream size : 244 MiB (4%)
Title : Original - BD 3D
Language : English
Default : No
Forced : No
Menu
00:00:00.000 : :1. The Dragonfly
00:11:15.425 : :2. The Complex Mating Process
00:14:04.093 : :3. The Atlas Beetle
00:19:57.738 : :4. Butterflies
00:39:27.115 : :5. Moths
00:42:16.325 : :6. The Fly





















   Похожие торренты   Торрент   Размер 
В этой теме нет новых непрочитанных сообщений. Покорение неба 3D (Дэвид Аттенборо) / Conquest of the Skies 3D (David Attenborough) [01-02 из 03] (2014) BDRip 720p | P

14 | 6

8.23 ГБ

В этой теме нет новых непрочитанных сообщений. Покорение неба 3D (Дэвид Аттенборо) / Conquest of the Skies 3D (David Attenborough) [01-02 из 03] (2014) BDRip 720p | P

3 | 0

5.48 ГБ

В этой теме нет новых непрочитанных сообщений. Покорение небес с Дэвидом Аттенборо (1-4 серии из 4) / David Attenborough's Conquest of the Skies (Дэвид Ли) [2014, документальный, флора, фауна, BDRip 720р] VO / Blu-Ray / BDRip / HDTV

7 | 0

10.07 ГБ

В этой теме нет новых непрочитанных сообщений. Музей естественной истории с Дэвидом Аттенборо / David Attenborough's Natural History Museum Alive (2014) | 3D-Video | halfOU | BDRip 1080p | L1

172 | 15

3.57 ГБ

В этой теме нет новых непрочитанных сообщений. Галапагосы с Дэвидом Аттенборо / Galapagos 3D (2013) BDRip 1080p от Ash61 | 3D-Video | halfOU | L1

55 | 18

18.64 ГБ

В этой теме нет новых непрочитанных сообщений. Покорение неба 3D / Conquest of the Skies 3D [01-04 из 04] (2014) BDRip 1080p | P1

20 | 10

16.23 ГБ

В этой теме нет новых непрочитанных сообщений. Микромонстры 3D с Дэвидом Аттенборо / Micro Monsters 3D (2013) BDRip 1080p от Ash61 | 3D-Video | halfOU | P1

311 | 184

17.43 ГБ




Вы не можете начинать темы
Вы не можете отвечать на сообщения
Вы не можете редактировать свои сообщения
Вы не можете удалять свои сообщения
Вы не можете добавлять вложения

Перейти:  
Для Мосгорсуда, Роскомнадзора и рекламодателей: mosgorsud-torrent[собачка]yandex.ru
 Вход
ppkBB3cker v.2 © 2008-2014 @ PPK
[ Time : 0.048s | 16 Queries | GZIP : Off ]

cron