img image001 image001 image001 image001 image001 image001 image001 image001 image001 image001 image001 image001 image001 image001 image001

Planets Sun Sun Sun
Статистика раздачи
Автор: Nickolas3434 | Размер: 1.63 ГБ | Добавлен: 29 ноя 2016, 17:50
Раздают: 251    Качают: 166
Скачать торрент
Скачать торрент
Описание торрента

СообщениеДобавлено: 29 ноя 2016, 17:50 


Информация о фильме
Название: Марс
Оригинальное название: Mars
Год выхода: 2016
Жанр: Документальный, космос
Режиссер: Эверардо Валерио Гоут
В ролях: Альберто Амман, Бен Коттон, Ката Сарбо, Николас Уиттман, Карен Ганьон, Том Нгуйен, Ген Сето, Наранцогт Цогцаикхан, Цогбаатар Бацориг, Алекс Саракко
О фильме:
Действие приключенческого сериала происходит в настоящем и недалеком будущем. В 2033 году на красную планету на борту корабля «Дедал» должна отправиться первая интерациональная команда исследователей под командованием американца Бена Сойера (Бен Коттон). Задача астронавтов — успешно высадиться на планете и начать ее заселение. В сериале «Марс» использованы художественные и документальные съемки, компьютерная графика, реконструирующая пейзажи далекой планеты, интервью современных ученых и изобретателей.
По мотивам книги "Как мы будет жить на Марсе" Стивена Петранека. 2033 год. Несколько десятилетий Международный научный фонд Марса планировал и разрабатывал пилотируемую экспедицию к красной планете. Этот этап должен стать первым на пути к созданию полноценной колонии вне Земли. Усилия учёных и инженеров стали реальностью с запуском космического корабля "Дедал". Он должен доставить международный экипаж на Марс, чтобы они начали освоение и исследование этой "терра инкогнита" для человечества.
Команду пионеров возглавляет Бен Сойер - системный инженер, который уже неоднократно принимал участие в космических полётах. Его заместителем является программист Ханна Сын, с детства грезившая покорением других миров. Её сестра работает оператором связи с "Дедалом" в центре управления полётами на Земле. Робототехник Роберт Фуко - выходец из дипломатической семьи. Геохимик Хавьер Дельгадо занимается обеспечением членов экипажа водой. Марта Камень имеет широкие научные познания в геологии и экзобиологии. Она грезит поисками внеземной жизни, и на Марсе ей предстоит ответить на ключевой вопрос, интересующий всё человечество. Врач и биохимик Амели Дюран заботиться не только за физическим состоянием членов экипажа, но и психологическим.
"Дедал" должен приземлиться вблизи заранее подготовленной марсианской базы, однако из-за сбоя космический корабль сел более чем в 70 километрах от цели. С самого начала экспедиции экипажу предстоит работать на пределе человеческих возможностей, чтобы не только выполнить своё задание, но и выжить при этом. Красная планета не собирается мирно "смотреть" на своих покорителей и приготовила для них несколько неприятных сюрпризов...
2016 год. Реальные учёные и инженеры дают свои оценки осуществимости пилотируемого полёта на Марс и создания на нём поселения. Кроме них своим мнением делятся энтузиасты, фантасты, просветители и авторы научно-популярных книг, в том числе Энди Уир, Илон Маск и Стивен Петранек.
Фильм переведен и озвучен студией "Велес"
Текст читают Марина Гладкая и Дмитрий Стрелков
-----------------------------------------
Документальный дубляж:
Голос рассказчика - полный дубляж
Интервью - слышна оригинальная речь
01. Ново Мундо


Страна: США
Студия: Imagine Intertainment and Radicalmedia in assiciation with Fremantlemedia Italy for National Geographic
Продолжительность: 1 x ~ 00:43:00
Перевод: Дублированный
Файл
Формат: avi
Качество: WEB-DLRip
Видео: XviD build 73, 720x400 (16:9), 25.000 fps, ~ 1422 Kbps (~ 0.197 bit/pixel)
Аудио: 48.0 kHz, AC3, 2/0 ch, 192 kbps
General
Complete name : Mars.2016.XviD.WEB-DLRip.GeneralFilmSerija.01.avi
Format : AVI
Format/Info : Audio Video Interleave
File size : 556 MiB
Duration : 47mn 53s
Overall bit rate : 1 623 Kbps
Writing application : VirtualDubMod 1.5.10.3 | www.virtualdub-fr.org || (build 2550/release)
Writing library : VirtualDubMod build 2550/release
Video
ID : 0
Format : MPEG-4 Visual
Format profile : Advanced Simple@L5
Format settings, BVOP : 1
Format settings, QPel : No
Format settings, GMC : No warppoints
Format settings, Matrix : Custom
Codec ID : XVID
Codec ID/Hint : XviD
Duration : 47mn 53s
Bit rate : 1 422 Kbps
Width : 720 pixels
Height : 400 pixels
Display aspect ratio : 16:9
Frame rate : 25.000 fps
Color space : YUV
Chroma subsampling : 4:2:0
Bit depth : 8 bits
Scan type : Progressive
Compression mode : Lossy
Bits/(Pixel*Frame) : 0.197
Stream size : 487 MiB (88%)
Writing library : XviD 73
Audio
ID : 1
Format : AC-3
Format/Info : Audio Coding 3
Mode extension : CM (complete main)
Format settings, Endianness : Big
Codec ID : 2000
Duration : 47mn 53s
Bit rate mode : Constant
Bit rate : 192 Kbps
Channel(s) : 2 channels
Channel positions : Front: L R
Sampling rate : 48.0 KHz
Frame rate : 31.250 fps (1536 spf)
Compression mode : Lossy
Stream size : 65.8 MiB (12%)
Alignment : Split accross interleaves
Interleave, duration : 40 ms (1.00 video frame)
Interleave, preload duratio : 500 ms






Релиз от:



   Похожие торренты   Торрент   Размер 
В этой теме нет новых непрочитанных сообщений. Марс / Mars [01 из 06] (2016) WEB-DLRip RG GeneralFilm | D

0 | 0

2.17 ГБ

В этой теме нет новых непрочитанных сообщений. Марс / Mars [01 из 06] (2016) WEB-DLRip RG GeneralFilm | D

143 | 3

556.13 МБ

В этой теме нет новых непрочитанных сообщений. Марс / Mars [01 из 06] (2016) WEB-DLRip RG GeneralFilm | D

24 | 10

1.09 ГБ

В этой теме нет новых непрочитанных сообщений. Новости с планеты Марс / News from Planet Mars / Des nouvelles de la planète Mars (2016) WEB-DLRip от Scarabey | iTunes

294 | 55

1.43 ГБ

В этой теме нет новых непрочитанных сообщений. Новости с планеты Марс / Des nouvelles de la planète Mars (2016) WEB-DLRip | iTunes

1566 | 346

1.48 ГБ

В этой теме нет новых непрочитанных сообщений. Новости с планеты Марс / Des nouvelles de la planète Mars (2016) WEB-DLRip | Line

3151 | 382

1.46 ГБ

В этой теме нет новых непрочитанных сообщений. Новости с планеты Марс / Des nouvelles de la planète Mars (2016) WEB-DLRip от MegaPeer | iTunes

163 | 21

745.35 МБ




Вы не можете начинать темы
Вы не можете отвечать на сообщения
Вы не можете редактировать свои сообщения
Вы не можете удалять свои сообщения
Вы не можете добавлять вложения

Перейти:  
Для Мосгорсуда, Роскомнадзора и рекламодателей: mosgorsud-torrent[собачка]yandex.ru
Настройки
ppkBB3cker v.2 © 2008-2014 @ PPK
[ Time : 0.824s | 16 Queries | GZIP : On ]
CGP [Extreme] output time : 0.00092s | 0 Queries | GZIP : On

Торрент трекер RUTOR.IN, Не можете зайти на rutor.org? Какой новый адрес рутор? Какое зеркало рутор? Не работает rutor.org и зеркала? Тогда наш торрент специально для вас. Rutor.in неофициальное зеркало rutor. В случае если у Вас заблокирован rutor или вдруг Вы не можете на него зайти, то Вы без труда сможете скачать бесплатно и без рекламы последние новинки кино, игр, сериалов и прочего у нас, на Rutor.in. Не нужно использовать прокси, чтобы зайти на рутор, достаточно воспользоваться нашим ресурсом. Все новые фильмы, игры, сериалы, книги и музыка за 2013 и 2014 годы через торрент бесплатно. Скачивайте фильмы в хорошем качестве, игры для пк, xbox, playstation без регистрации. У нас вы найдете новые Зарубежные сериалы и Русские сериалы 2013, 2014, 2015 годов. Оставайтесь с нами, качайте любимые фильмы, игры, сериалы, книги и музыку.