img image001 image001 image001 image001 image001 image001 image001 image001 image001 image001 image001 image001 image001 image001 image001 image001

Planets Sun Sun Sun
Статистика раздачи
Автор: Nickolas3434 | Размер: 6.28 ГБ | Добавлен: 08 апр 2017
Раздают: 1    Качают: 4
Скачать торрент
Скачать торрент
Описание торрента

СообщениеДобавлено: 08 апр 2017 

Информация о фильме
Название: NG: Широкий взгляд с Кэлом Пенном
Оригинальное название: The Big Picture with Kal Penn
Год выхода: 2015
Жанр: Документальный, научно-популярный, статистика
Режиссер: Майкл Нигро
В ролях: Кэл Пенн
О фильме:
Кэл Пенн с помощью разной информации, карт и таблиц покажет нам мир в совсем другом ракурсе. В каждой серии нас ожидают удивительные факты о таких темах, как технологии, деньги, еда и секс, преступность и спорт, узнаем, как работает мир, как мы здесь оказались и даже куда направляемся.
01. Crime, Inc / Преступная корпорация
Кэл Пенн прослеживает основные маршруты для незаконной деятельности по всему миру, торговля наркотиками, зависимость некоторых отраслкй промышленности от преступной деятельности.
02. Treasure Hunt / Поиск сокровищ
Охота на настоящее сокровище, которое можно найти в любом месте от вашего собственного дома, чтобы похоронили глубоко под землей, если вы просто следовать данным.
03. Sex Drive / Либидо
Узнать, что происходит в спальнях по всему миру, включая даже самые интимные подробности
04. Going Viral / Эпидемии
Исследование причин и движущих сил мировых эпидемий, и объясняет, что делает их более опасными, чем мы думаем.
05. Fantasy Sports / Фантастический спорт
Кэл Пенн пытается создать идеальную спортивную команду с лучшими в мире игроками, тренерами, площадками, болельщиками и даже с лучшим талисманом.
06. Surviving Nature's Fury / Пережить стихию
Окунитесь в мир природных катастроф и узнайте, как люди справляются с самыми экстремальными условиями в тех местах планеты, где буйствуют стихии.
07. Born to Be Wired / Жизнь в сети
Нынешний кибермир создан из реальных мест, и эти локации значат больше, чем вы можете подумать. Кэл проводит анализ того, как мы соединены.
08. Eat This! / Ешь это!
Соус с саранчой, пицца для похудения и самодельное виски - Кэл Пенн хочет разобраться в этом и выяснить, действительно ли мы - то, что мы едим.
09. Cash for Trash / Деньги из мусора
По всему миру есть люди, делающие "деньги, которые пахнут", и эти деньги они зарабатывают на вашем мусоре.
10. Space Invasion / Освоение космоса
Космос намного ближе чем мы думаем - метеорология, телевидение, GPS...
11. Body City / Тело-город
Meet doctors who grow body parts in labs, scientists who study rotting bodies, and biohackers with magnets
12. Off the Map / Терра инкогнита
Кэл Пенн исследует такие повседневные технологии, как GPS и спутниковое телевидение, благодаря которым космос стал для нас чем-то привычным.

Официальный сайт
Страна: США
Студия: Produced by National Geographic Television for National Geographic Channels
Продолжительность: 12 x ~ 00:22:00
Перевод: Профессиональный одноголосый
Файл
Кодек: H.264
Качество: HDTVRip 720p
Видео: 1280x720 (16:9), 25 fps, AVC (x264), High@L4.1, ~2800-4000 kbps
Звук: Русский, AAC-LC, 2 ch, 48 KHz, ~106-114 kbps avg
General
Unique ID : 234815797316811638907771282831920905746 (0xB0A7E0A6E78FD8018CB4F303BF0CBE12)
Complete name : H:TORRENTSThe Big Picture with Kal Penn, 2015Ep01. Crime, Inc (Преступная корпорация).mkv
Format : Matroska
Format version : Version 4 / Version 2
File size : 464 MiB
Duration : 21 min 57 s
Overall bit rate : 2 955 kb/s
Encoded date : UTC 2017-04-08 13:38:56
Writing application : mkvmerge v8.3.0 ('Over the Horizon') 64bit
Writing library : libebml v1.3.1 + libmatroska v1.4.2
Video
ID : 1
Format : AVC
Format/Info : Advanced Video Codec
Format profile : High@L4.1
Format settings, CABAC : Yes
Format settings, ReFrames : 9 frames
Codec ID : V_MPEG4/ISO/AVC
Duration : 21 min 57 s
Bit rate : 2 842 kb/s
Width : 1 280 pixels
Height : 720 pixels
Display aspect ratio : 16:9
Frame rate mode : Constant
Frame rate : 25.000 FPS
Color space : YUV
Chroma subsampling : 4:2:0
Bit depth : 8 bits
Scan type : Progressive
Bits/(Pixel*Frame) : 0.123
Stream size : 446 MiB (96%)
Writing library : x264 core 148 r2708 86b7198
Encoding settings : cabac=1 / ref=9 / deblock=1:0:0 / analyse=0x3:0x133 / me=umh / subme=10 / psy=1 / psy_rd=1.00:0.00 / mixed_ref=1 / me_range=24 / chroma_me=1 / trellis=2 / 8x8dct=1 / cqm=0 / deadzone=21,11 / fast_pskip=1 / chroma_qp_offset=-2 / threads=6 / lookahead_threads=1 / sliced_threads=0 / nr=0 / decimate=1 / interlaced=0 / bluray_compat=0 / constrained_intra=0 / bframes=8 / b_pyramid=2 / b_adapt=2 / b_bias=0 / direct=3 / weightb=1 / open_gop=0 / weightp=2 / keyint=250 / keyint_min=25 / scenecut=40 / intra_refresh=0 / rc_lookahead=60 / rc=crf / mbtree=1 / crf=18.0 / qcomp=0.60 / qpmin=0 / qpmax=69 / qpstep=4 / vbv_maxrate=62500 / vbv_bufsize=78125 / crf_max=0.0 / nal_hrd=none / filler=0 / ip_ratio=1.40 / aq=1:1.00
Language : English
Default : Yes
Forced : No
Color range : Limited
Color primaries : BT.709
Transfer characteristics : BT.709
Matrix coefficients : BT.709
Audio
ID : 2
Format : AAC
Format/Info : Advanced Audio Codec
Format profile : LC
Codec ID : A_AAC
Duration : 21 min 57 s
Bit rate : 111 kb/s
Channel(s) : 2 channels
Channel positions : Front: L R
Sampling rate : 48.0 kHz
Frame rate : 46.875 FPS (1024 spf)
Compression mode : Lossy
Stream size : 17.4 MiB (4%)
Language : Russian
Default : Yes
Forced : No




   Похожие торренты   Торрент   Размер 
В этой теме нет новых непрочитанных сообщений. NG: Широкий взгляд с Кэлом Пенном / The Big Picture with Kal Penn [S01] (2015) HDTV 1080i | P1

5 | 0

16.9 ГБ

В этой теме нет новых непрочитанных сообщений. NG: Широкий взгляд с Кэлом Пенном / The Big Picture with Kal Penn [01-07] (2015) HDTV 1080i

57 | 26

9.87 ГБ

В этой теме нет новых непрочитанных сообщений. Влад Листьев: Взгляд Через Двадцать Лет (2015) HDTVRip 720p

91 | 5

1.51 ГБ

В этой теме нет новых непрочитанных сообщений. Взгляд из вечности [01-02 из 04] (2014) HDTVRip 720p от MediaClub

4 | 3

4.86 ГБ

В этой теме нет новых непрочитанных сообщений. Взгляд из вечности [01-02 из 04] (2014) HDTVRip 720p от MediaClub

167 | 45

9.72 ГБ

В этой теме нет новых непрочитанных сообщений. Взгляд в прошлое / Hindsight [S01] (2015) WEB-DL 720p | Hamster

0 | 0

12.58 ГБ

В этой теме нет новых непрочитанных сообщений. Взгляд изнутри. Зона 51: Рессекречено / Area 51 Declassified (2010) HDTVRip 720p | P1

412 | 29

1.13 ГБ




Вы не можете начинать темы
Вы не можете отвечать на сообщения
Вы не можете редактировать свои сообщения
Вы не можете удалять свои сообщения
Вы не можете добавлять вложения

Перейти:  
 Вход
ppkBB3cker v.2 © 2008-2014 @ PPK
[ Time : 0.021s | 16 Queries | GZIP : Off ]

cron