img image001 image001 image001 image001 image001 image001 image001 image001 image001 image001 image001 image001 image001 image001 image001

Planets Sun Sun Sun
Статистика раздачи
Автор: Nickolas3434 | Размер: 3.15 ГБ | Добавлен: 24 июл 2017
Раздают: 2    Качают: 0
Скачать торрент
Скачать торрент
Описание торрента

СообщениеДобавлено: 24 июл 2017 

Моцарт в Лондоне / Mozart in London (Lucy Worsley: Mozart's London Odyssey)

Перевод: Профессиональный (одноголосый) "SDI Media"
Субтитры: отсутствуют
Формат: HDTVRip 720p, MKV, H.264, AC3
Страна: Великобритания, BBC, Matchlight Ltd
Режиссер: Мэтью Хилл
Жанр: документальный, история, музыка, биография
Продолжительность: 00:58:39
Год выпуска: 2016

Ведущая: доктор - Люси Уорсли
Текст читает: Ольга Сирина

Описание: Люси Уорсли изучает забытую историю приключений юного Моцарта в Лондоне времен короля Георга. Лондон был многообещающим городом для прибывшего в него в 1764 году восьмилетнего мальчика.

Видео: 1280x720 (16:9), 50 fps, AVC (x264), ~7500 kbps avg, 0.163 bit/pixel
Аудио: 48 kHz, AC3, 2 ch, ~192.00 kbps avg

Рип и постер: skorpionN


Код:
Код:
Общее
Уникальный идентификатор : 191995625249013277964080557810112093480 (0x9071032BB7F45991B23DB786144D5D28)
Полное имя : D:\BBC_Mozarts_London Odyssey.mkv
Формат : Matroska
Версия формата : Version 4 / Version 2
Размер файла : 3,15 Гбайт
Продолжительность : 58 м.
Режим общего битрейта : Переменный
Общий поток : 7695 Кбит/сек
Дата кодирования : UTC 2017-07-22 10:55:46
Программа кодирования : mkvmerge v6.9.1 ('Blue Panther') 64bit built on Apr 18 2014 18:23:38
Библиотека кодирования : libebml v1.3.0 + libmatroska v1.4.1

Видео
Идентификатор : 1
Формат : AVC
Формат/Информация : Advanced Video Codec
Профиль формата :
Параметр CABAC формата : Да
Параметр ReFrames формата : 3 кадра
Идентификатор кодека : V_MPEG4/ISO/AVC
Продолжительность : 58 м.
Вид битрейта : Переменный
Битрейт : 7500 Кбит/сек
Максимальный битрейт : 62,5 Мбит/сек
Ширина : 1280 пикселей
Высота : 720 пикселей
Соотношение сторон : 16:9
Режим частоты кадров : Постоянный
Частота кадров : 50,000 кадров/сек
Стандарт вещания : NTSC
Цветовое пространство : YUV
Субдискретизация насыщенности : 4:2:0
Битовая глубина : 8 бит
Тип развёртки : Прогрессивная
Бит/(Пиксели*Кадры) : 0.163
Размер потока : 3,01 Гбайт (96%)
Библиотека кодирования : x264 core 114
Настройки программы : cabac=1 / ref=3 / deblock=1:0:0 / analyse=0x3:0x113 / me=hex / subme=7 / psy=1 / psy_rd=1.00:0.00 / mixed_ref=1 / me_range=16 / chroma_me=1 / trellis=1 / 8x8dct=1 / cqm=2 / deadzone=21,11 / fast_pskip=1 / chroma_qp_offset=-4 / threads=6 / sliced_threads=0 / slices=1 / nr=0 / decimate=1 / interlaced=0 / constrained_intra=0 / bframes=3 / b_pyramid=0 / b_adapt=1 / b_bias=0 / direct=1 / weightb=1 / open_gop=0 / weightp=2 / keyint=250 / keyint_min=25 / scenecut=40 / intra_refresh=0 / rc_lookahead=40 / rc=2pass / mbtree=1 / bitrate=7500 / ratetol=1.0 / qcomp=0.60 / qpmin=5 / qpmax=69 / qpstep=4 / cplxblur=20.0 / qblur=0.5 / vbv_maxrate=62500 / vbv_bufsize=62488 / nal_hrd=vbr / ip_ratio=1.40 / aq=1:1.00
Default : Да
Forced : Нет
Цветовой диапазон : Limited
Основные цвета : BT.709
Характеристики трансфера : BT.709
Коэффициенты матрицы : BT.709

Аудио
Идентификатор : 2
Формат : AC-3
Формат/Информация : Audio Coding 3
Расширение режима : CM (complete main)
Параметр Endianness формата : Big
Идентификатор кодека : A_AC3
Продолжительность : 58 м.
Вид битрейта : Постоянный
Битрейт : 192 Кбит/сек
Каналы : 2 канала
Расположение каналов : Front: L R
Частота : 48,0 КГц
Частота кадров : 31,250 кадров/сек (1536 spf)
Метод сжатия : С потерями
Размер потока : 80,6 Мбайт (2%)
Default : Да
Forced : Нет














   Похожие торренты   Торрент   Размер 
В этой теме нет новых непрочитанных сообщений. Моцарт в Лондоне / Mozart in London (Lucy Worsley: Mozart's London Odyssey) / (Мэтью Хилл) [2016, документальный, история, музыка, биография, HDTVRip] VO

10 | 2

885.64 МБ

В этой теме нет новых непрочитанных сообщений. Моцарт - суперзвезда / Mozart Superstar (2012) HDTVRip 720p

1 | 0

1.5 ГБ

В этой теме нет новых непрочитанных сообщений. Моцарт в джунглях / Mozart in the Jungle [S03] (2016) WEBRip 720p | AMS

3 | 10

11.91 ГБ

В этой теме нет новых непрочитанных сообщений. Моцарт – навсегда / For Ever Mozart (1996) BDRip 720p | P2

26 | 12

4.96 ГБ

В этой теме нет новых непрочитанных сообщений. Моцарт в джунглях / Mozart in the Jungle [S03] (2016) WEB-DLRip 720p | IdeaFilm

4 | 12

9.16 ГБ

В этой теме нет новых непрочитанных сообщений. Сестра Моцарта / Nannerl, la soeur de Mozart / Mozart's Sister (2010) BDRip 720p

3 | 2

4.73 ГБ

В этой теме нет новых непрочитанных сообщений. Моцарт в джунглях / Mozart in the Jungle [S03] (2016) WEB-DLRip | IdeaFilm

0 | 3

3.72 ГБ




Вы не можете начинать темы
Вы не можете отвечать на сообщения
Вы не можете редактировать свои сообщения
Вы не можете удалять свои сообщения
Вы не можете добавлять вложения

Перейти:  
Для Мосгорсуда, Роскомнадзора и рекламодателей: mosgorsud-torrent[собачка]yandex.ru
 Вход
ppkBB3cker v.2 © 2008-2014 @ PPK
[ Time : 0.038s | 18 Queries | GZIP : Off ]

cron