img image001 image001 image001 image001 image001 image001 image001 image001 image001 image001 image001 image001 image001 image001 image001

Planets Sun Sun Sun
Статистика раздачи
Автор: Nickolas3434 | Размер: 4.14 ГБ | Добавлен: 26 июл 2017
Раздают: 2    Качают: 0
Скачать торрент
Скачать торрент
Описание торрента

СообщениеДобавлено: 26 июл 2017 

Возрождение Металлолома (1 сезон, 1-3,5-6 серии из 6) / Discovery. Iron Resurrection


Перевод: Профессиональный (одноголосый), cубтитры: отсутствуют
Формат: SATRip, MKV, H.264, AC3
Страна: США
Режиссер: Discovery Channel HD
Жанр: документальный, телепередача, реалити-шоу
Продолжительность: 5 x ~ 00:44:00
Год выпуска: 2016

Описание: Программа о реконструкции автомобилей.
Джо Мартин и его команда усердно работают, давая транспортным средствам еще один шанс в жизни.


Рейтинг на:


Видео: 720x576@1024x578 (16:9), 25,000 fps, AVC (х264), High@L3, 2225 Кбит/сек, ~ 0.215 bit/pixel
Аудио: 48 kHz, AC3 Dolby Digital, 2/0 (L,R) ch, ~192.00 kbps avg
(тех. данные серий идентичны)

Внимание! Раздача ведётся путём добавления новых серий; при каждом добавлении создается новый торрент. Чтобы начать докачку новой серии, пользователям необходимо сделать следующее:
(1) остановить скачивание,
(2) удалить старый торрент у себя из клиента (старые серии удалять не надо),
(3) скачать новый торрент и запустить его у себя в клиенте вместо старого, при этом указать клиенту путь в старую папку куда и должно происходить скачивание новых серий.

Ваш клиент при этом должен произвести хеширование (проверку) старой папки (если не производит сам - помогите ему сделать это), и будет докачивать только те серии которых у вас ещё нет. Старые серии при этом не удаляются, а продолжают раздаваться!

Если вы уже удалили старые серии, то предотвратить повторную закачку старых серий можно, отжав галочку в соответствующих местах при запуске нового торрента. По возможности, желательно не удалять старые серии как можно дольше чтобы релизёр не столько продолжал раздавать старые серии, а смог сконцентрироваться на новых.



Общее
Format : Matroska
Format version : Version 1
File size : 800 MiB
Duration : 45 min 19 s
Overall bit rate : 2 466 kb/s
Writing application : Cyberlink Matroska Muxer v1.0.0
Writing library : libebml v0.7.8 + libmatroska v0.8.1
ErrorDetectionType : Per level 1

Video
ID : 1
Format : AVC
Format/Info : Advanced Video Codec
Format profile : High@L3
Format settings, CABAC : Yes
Format settings, ReFrames : 2 frames
Format settings, GOP : M=3, N=13
Codec ID : V_MPEG4/ISO/AVC
Duration : 45 min 19 s
Bit rate : 2 225 kb/s
Width : 720 pixels
Height : 576 pixels
Display aspect ratio : 16:9
Frame rate mode : Constant
Frame rate : 25.000 FPS
Standard : PAL
Color space : YUV
Chroma subsampling : 4:2:0
Bit depth : 8 bits
Scan type : Progressive
Bits/(Pixel*Frame) : 0.215
Stream size : 721 MiB (90%)
Language : English
Default : Yes
Forced : No

Audio
ID : 1
Format : AC-3
Format/Info : Audio Coding 3
Format settings, Endianness : Big
Codec ID : A_AC3
Duration : 45 min 19 s
Bit rate mode : Constant
Bit rate : 192 kb/s
Channel(s) : 2 channels
Channel positions : Front: L R
Sampling rate : 48.0 kHz
Frame rate : 31.250 FPS (1536 spf)
Bit depth : 16 bits
Compression mode : Lossy
Stream size : 62.3 MiB (8%)
Language : Russian
Service kind : Complete Main
Default : Yes
Forced : No




   Похожие торренты   Торрент   Размер 
В этой теме нет новых непрочитанных сообщений. Мастерская «Фантом Уоркс» (5 сезон, 1,3 серии из 7) / Discovery. Fantom Works (Тим Прокоп, Стив Джонс) [2016, документальный, телепередача, реалити-шоу, автомобили, SATRip-AVC] VO

2 | 0

1.44 ГБ

В этой теме нет новых непрочитанных сообщений. Остров с Беаром Гриллсом (4 сезон, 1-4 серии из ?) / Discovery. The Island with Bear Grylls (Дэн Этеридж) [2017, документальный, реалити-шоу, выживание, HDTVRip] MVO

2 | 0

2.14 ГБ

В этой теме нет новых непрочитанных сообщений. Остров с Беаром Гриллсом (4 сезон, 1-4 серии из ?) / Discovery. The Island with Bear Grylls (Дэн Этеридж) [2017, документальный, реалити-шоу, выживание, HDTVRip 720p] MVO

2 | 3

5.16 ГБ

В этой теме нет новых непрочитанных сообщений. Детройт: Новая жизнь машин (1 сезон, 1-7 серии из 8) / Detroit Steel (History) [2017, документальный, телепередача, реалити-шоу, HDTV 1080i] VO

0 | 4

18.16 ГБ

В этой теме нет новых непрочитанных сообщений. Детройт: Новая жизнь машин (1 сезон, 1-8 серии из 8) / Detroit Steel (History) [2017, документальный, телепередача, реалити-шоу, HDTV 1080i] VO / Blu-Ray / BDRip / HDTV

0 | 2

20.76 ГБ

В этой теме нет новых непрочитанных сообщений. Авто S.O.S. (2 сезон, 1-9 серии из 10) / National Geographic. Car S.O.S. (National Geographic Channels) [2014, документальный, телепередача, реалити-шоу, HDTV 1080i] VO

0 | 2

26.02 ГБ

В этой теме нет новых непрочитанных сообщений. Авто S.O.S. (3 сезон, 1-7 серии из 10) / National Geographic. Car S.O.S. (National Geographic Channels) [2015, документальный, телепередача, реалити-шоу, HDTV 1080i] VO

0 | 3

20.31 ГБ




Вы не можете начинать темы
Вы не можете отвечать на сообщения
Вы не можете редактировать свои сообщения
Вы не можете удалять свои сообщения
Вы не можете добавлять вложения

Перейти:  
Контактная информация: rstracker[пёсик]yandex.ru
cron
 Вход
ppkBB3cker v.2 © 2008-2014 @ PPK
[ Time : 0.026s | 17 Queries | GZIP : Off ]

cron