img image001 image001 image001 image001 image001 image001 image001 image001 image001 image001 image001 image001 image001 image001 image001 image001

Planets Sun Sun Sun
Статистика раздачи
Автор: Nickolas3434 | Размер: 2.45 ГБ | Добавлен: 26 июл 2017
Раздают: 0    Качают: 0
Скачать торрент
Скачать торрент
Описание торрента

СообщениеДобавлено: 26 июл 2017 

Независимая игра: Кино / Indie Game: The Movie


Перевод: Любительский (многоголосый, закадровый), cубтитры: отсутствуют
Формат: BDRip 720р, MKV, H.264, MP3
Страна: Канада
Режиссер: Лизанн Пажо, Джеймс Свирски
Жанр: документальный, биография, кинематограф
Продолжительность: 01:43:05
Год выпуска: 2012

В ролях: Джонатон Блоу, Фил Фишь, Едмунд Макмилен, Томми Рефенес, Джое Дриллинг

Описание: Это документальное кино, рассказывающее истории четырех замечательных разработчиков трёх не менее замечательных игр. Фильм расскажет как Эдмунд МакМиллен и Томми Рефенес делали и выпускали SUPER MEAT BOY. Как Фил Фиш показывал первый прототип Fez на выставке PAX EAST. А также поведает историю Джонатана Блоу, создателя великолепной BRAID. Как заверяют авторы, лейтмотивом всего фильма должна стать идея выражения собственной индивидуальности разработчика через создание игры.

Рейтинг на:


Видео: 1280x720 (16:9), 23,976 fps, AVC (х264), , 3203 Кбит/сек, ~ 0.145 bit/pixel
Аудио: 48 kHz, MPEG Layer 3, 2 ch, ~128.00 kbps avg

Доп. информация: Релиз от: boba88

Доп. информация: Награды:
Санденс, 2012 год
Номинации (1):
Гран-при в категории «Документальный фильм» (Программа «Мировое кино»)


General
Уникальный идентификатор : 121691242879660957466303077941466391816 (0x5B8CE1803F9137DF537067424C846508)
Полное имя : F:\КИНО\Indie Game The Movie 720p.mkv
Формат : Matroska
Версия формата : Version 4 / Version 2
Размер файла : 2,45 Гбайт
Продолжительность : 1 ч. 43 м.
Общий поток : 3399 Кбит/сек
Программа кодирования : Lavf57.25.100
Библиотека кодирования : Lavf57.25.100

Видео
Идентификатор : 1
Формат : AVC
Формат/Информация : Advanced Video Codec
Профиль формата :
Параметр CABAC формата : Да
Параметр RefFrames формата : 4 кадра
Идентификатор кодека : V_MPEG4/ISO/AVC
Продолжительность : 1 ч. 43 м.
Битрейт : 3203 Кбит/сек
Ширина : 1280 пикселей
Высота : 720 пикселей
Соотношение сторон : 16:9
Режим частоты кадров : Постоянный
Частота кадров : 23,976 (24000/1001) кадра/сек
Цветовое пространство : YUV
Субдискретизация насыщенности : 4:2:0
Битовая глубина : 8 бит
Тип развёртки : Прогрессивная
Бит/(Пиксели*Кадры) : 0.145
Размер потока : 2,31 Гбайт (94%)
Библиотека кодирования : x264 core 146 r2538 121396c
Настройки программы : cabac=1 / ref=3 / deblock=1:0:0 / analyse=0x3:0x133 / me=hex / subme=7 / psy=1 / psy_rd=1.00:0.00 / mixed_ref=1 / me_range=16 / chroma_me=1 / trellis=1 / 8x8dct=1 / cqm=0 / deadzone=21,11 / fast_pskip=1 / chroma_qp_offset=-2 / threads=6 / lookahead_threads=1 / sliced_threads=0 / nr=0 / decimate=1 / interlaced=0 / bluray_compat=0 / constrained_intra=0 / bframes=3 / b_pyramid=2 / b_adapt=1 / b_bias=0 / direct=1 / weightb=1 / open_gop=0 / weightp=2 / keyint=250 / keyint_min=25 / scenecut=40 / intra_refresh=0 / rc_lookahead=40 / rc=crf / mbtree=1 / crf=20.0 / qcomp=0.60 / qpmin=10 / qpmax=51 / qpstep=4 / ip_ratio=1.40 / aq=1:1.00
Default : Да
Forced : Нет
DURATION : 01:43:05.352000000

Аудио
Идентификатор : 2
Формат : MPEG Audio
Версия формата : Version 1
Профиль формата : Layer 3
Режим : Joint stereo
Расширение режима : MS Stereo
Идентификатор кодека : A_MPEG/L3
Идентификатор кодека/Подсказка : MP3
Продолжительность : 1 ч. 43 м.
Вид битрейта : Постоянный
Битрейт : 128 Кбит/сек
Каналы : 2 канала
Частота : 48,0 КГц
Метод сжатия : С потерями
Размер потока : 94,4 Мбайт (4%)
Default : Да
Forced : Нет
DURATION : 01:43:05.272000000













   Похожие торренты   Торрент   Размер 
В этой теме нет новых непрочитанных сообщений. Независимая игра: Кино / Indie Game: The Movie (2012) HD

12 | 5

2.97 ГБ

В этой теме нет новых непрочитанных сообщений. Легенды кино. Андрей Файт (Андрей Истратов) [2017, документальный, биография, кинематограф, IPTVRip]

4 | 0

409.13 МБ

В этой теме нет новых непрочитанных сообщений. Независимые Игры / Indie Game: The Movie (2012) HD | Sub

6 | 2

1.64 ГБ

В этой теме нет новых непрочитанных сообщений. Вильгельм Завоеватель / Guillaume le Conquerant (Фредерик Компэйн) [2014, документальный, история, биография, игровой, HDTVRip 720р] DVO / Blu-Ray / BDRip / HDTV

4 | 0

1.54 ГБ

В этой теме нет новых непрочитанных сообщений. Айвазовский. На гребне волны (Екатерина Кругликова, Вера Травкина) [2017, документальный, биография, искусство, живопись, WEBRip 720р] / Blu-Ray / BDRip / HDTV

4 | 0

1.41 ГБ

В этой теме нет новых непрочитанных сообщений. Тайны кино (Девчата) [2017, документальный, кинематограф, WEBRip]

6 | 0

577.98 МБ

В этой теме нет новых непрочитанных сообщений. Тайны кино (Вам и не снилось...) [2017, документальный, кинематограф, WEBRip]

3 | 0

580.97 МБ




Вы не можете начинать темы
Вы не можете отвечать на сообщения
Вы не можете редактировать свои сообщения
Вы не можете удалять свои сообщения
Вы не можете добавлять вложения

Перейти:  
 Вход
ppkBB3cker v.2 © 2008-2014 @ PPK
[ Time : 0.051s | 18 Queries | GZIP : Off ]

cron