img image001 image001 image001 image001 image001 image001 image001 image001 image001 image001 image001 image001 image001 image001 image001

Planets Sun Sun Sun
Статистика раздачи
Автор: Nickolas3434 | Размер: 2.27 ГБ | Добавлен: 04 авг 2017
Раздают: 1    Качают: 0
Скачать торрент
Скачать торрент
Описание торрента

СообщениеДобавлено: 04 авг 2017 

Огромный морской змей (1 сезон, 1 серия из 5) / NAT GEO WIND. Giant sea serpent


Перевод: Профессиональный (одноголосый) /"Велес", Станислав Войнич/, cубтитры: отсутствуют
Формат: HDTVRip 720p, MKV, H.264, MP2
Страна: Франция
Режиссер: Бертран Лойер
Жанр: документальный, познавательный, исследования
Продолжительность: 1 х ~ 00:44:00
Год выпуска: 2015

Описание: Специализированные буи открывают новые возможности наблюдения за морским змеем, источником множества мифов и легенд.

Видео: 1920x1080 (16:9), 25,000 fps, AVC (х264), , 7051 Кбит/сек, ~ 0.136 bit/pixel
Аудио: Русский 48 kHz, MPEG Layer 2, 2 ch, ~192.00 kbps avg
Аудио: Английский 48 kHz, MPEG Layer 2, 2 ch, ~192.00 kbps avg
(тех. данные всех серий идентичны)

Внимание! Раздача ведётся путём добавления новых серий; при каждом добавлении создается новый торрент. Чтобы начать докачку новой серии, пользователям необходимо сделать следующее:
(1) остановить скачивание,
(2) удалить старый торрент у себя из клиента (старые серии удалять не надо),
(3) скачать новый торрент и запустить его у себя в клиенте вместо старого, при этом указать клиенту путь в старую папку куда и должно происходить скачивание новых серий.

Ваш клиент при этом должен произвести хеширование (проверку) старой папки (если не производит сам - помогите ему сделать это), и будет докачивать только те серии которых у вас ещё нет. Старые серии при этом не удаляются, а продолжают раздаваться!

Если вы уже удалили старые серии, то предотвратить повторную закачку старых серий можно, отжав галочку в соответствующих местах при запуске нового торрента. По возможности, желательно не удалять старые серии как можно дольше чтобы релизёр не столько продолжал раздавать старые серии, а смог сконцентрироваться на новых.



Общее
Уникальный идентификатор : 210806804026059490554117645017053161240 (0x9E97E9E4030DF334ADD2844A12B46718)
Полное имя : F:\КИНО\Gigantskiy.morskoy.smey(2015)HDTV1080i.Generalfilm\1. Огромный морской змей.mkv
Формат : Matroska
Версия формата : Version 4 / Version 2
Размер файла : 2,27 Гбайт
Продолжительность : 43 м. 59 с.
Режим общего битрейта : Постоянный
Общий поток : 7389 Кбит/сек
Дата кодирования : UTC 2017-08-02 17:47:32
Программа кодирования : mkvmerge v6.8.0 ('Theme for Great Cities') 64bit built on Mar 2 2014 21:34:26
Библиотека кодирования : libebml v1.3.0 + libmatroska v1.4.1

Видео
Идентификатор : 1
Формат : AVC
Формат/Информация : Advanced Video Codec
Профиль формата :
Параметр CABAC формата : Да
Параметр RefFrames формата : 3 кадра
Идентификатор кодека : V_MPEG4/ISO/AVC
Продолжительность : 43 м. 59 с.
Вид битрейта : Постоянный
Битрейт : 7051 Кбит/сек
Ширина : 1920 пикселей
Высота : 1080 пикселей
Соотношение сторон : 16:9
Режим частоты кадров : Постоянный
Частота кадров : 25,000 кадров/сек
Стандарт вещания : PAL
Цветовое пространство : YUV
Субдискретизация насыщенности : 4:2:0
Битовая глубина : 8 бит
Тип развёртки : Прогрессивная
Бит/(Пиксели*Кадры) : 0.136
Размер потока : 2,11 Гбайт (93%)
Default : Да
Forced : Нет
Цветовой диапазон : Limited
Основные цвета : BT.709
Характеристики трансфера : BT.709
Коэффициенты матрицы : BT.709

Аудио #1
Идентификатор : 2
Формат : MPEG Audio
Версия формата : Version 1
Профиль формата : Layer 2
Идентификатор кодека : A_MPEG/L2
Идентификатор кодека/Подсказка : MP2
Продолжительность : 43 м. 59 с.
Вид битрейта : Постоянный
Битрейт : 192 Кбит/сек
Каналы : 2 канала
Частота : 48,0 КГц
Метод сжатия : С потерями
Размер потока : 60,4 Мбайт (3%)
Язык : Russian
Default : Да
Forced : Нет

Аудио #2
Идентификатор : 3
Формат : MPEG Audio
Версия формата : Version 1
Профиль формата : Layer 2
Идентификатор кодека : A_MPEG/L2
Идентификатор кодека/Подсказка : MP2
Продолжительность : 43 м. 59 с.
Вид битрейта : Постоянный
Битрейт : 192 Кбит/сек
Каналы : 2 канала
Частота : 48,0 КГц
Метод сжатия : С потерями
Размер потока : 60,4 Мбайт (3%)
Язык : English
Default : Нет
Forced : Нет



1. Встреча с мифом








   Похожие торренты   Торрент   Размер 
В этой теме нет новых непрочитанных сообщений. Удивительные слоны (Душа гиганта) / NAT GEO WIND. Soul of the Elephant (Дерек Жубер) [2015, документальный, фауна, HDTV 1080i] VO / Blu-Ray / BDRip / HDTV

4 | 0

2.22 ГБ

В этой теме нет новых непрочитанных сообщений. Инки: Владыки облаков (1 серия из 2) / The Inca: Masters of the Clouds (Доминик Галлахер) [2015, документальный, история, исследования, HDTVRip 720p] VO

8 | 0

1.8 ГБ

В этой теме нет новых непрочитанных сообщений. Дикий Запад Африки / NAT GEO WIND. Africa's Wild West (Франс Леопольд Шмелзер) [2014, документальный, фауна, HDTV 1080i] VO / Blu-Ray / BDRip / HDTV

6 | 0

2.78 ГБ

В этой теме нет новых непрочитанных сообщений. Nat Geo Wild: Пустынное море / The Desert Sea [01-02] (2016) HDTVRip-AVC | P1

2 | 0

1.96 ГБ

В этой теме нет новых непрочитанных сообщений. Nat Geo Wild: Дикое море России / Russia's Wild Sea [01-02] (2017) HDTVRip | P1

7 | 2

1.19 ГБ

В этой теме нет новых непрочитанных сообщений. Nat Geo Wild: Дикое море России / Russia's Wild Sea [01-02] (2017) HDTVRip-AVC | P1

4 | 4

1.62 ГБ

В этой теме нет новых непрочитанных сообщений. Nat Geo Wild: Дикое море России / Russia's Wild Sea [01-02] (2017) HDTVRip 1080p | P1

5 | 9

2.61 ГБ




Вы не можете начинать темы
Вы не можете отвечать на сообщения
Вы не можете редактировать свои сообщения
Вы не можете удалять свои сообщения
Вы не можете добавлять вложения

Перейти:  
Контактная информация: rstracker[пёсик]yandex.ru
 Вход
ppkBB3cker v.2 © 2008-2014 @ PPK
[ Time : 0.146s | 20 Queries | GZIP : Off ]

cron