img image001 image001 image001 image001 image001 image001 image001 image001 image001 image001 image001 image001 image001 image001 image001

Planets Sun Sun Sun
Статистика раздачи
Автор: Nickolas3434 | Размер: 1.31 ГБ | Добавлен: 12 авг 2017
Раздают: 2    Качают: 0
Скачать торрент
Скачать торрент
Описание торрента

СообщениеДобавлено: 12 авг 2017 

Китовая акула / Whale Shark
Оценка релиза: 
Перевод: Профессиональный (одноголосый)
Субтитры: английские (вшитые, отключаемые SRT)
Формат: HDTVRip 720р, MKV, H.264, AC3/AC3
Страна: Великобритания, BBC, Animal Planet
Режиссер: Эмма Росс, Сара Кунлайфф
Жанр: документальный, природа, зоология
Продолжительность: 00:48:48
Год выпуска: 2008

Описание: Китовая акула - самая крупная рыба в мире и, вместе с тем, одна из самых загадочных и малоизученных. Ее длина может достигать 15 метров, а вес - 12 тонн! Несмотря на огромные размеры, китовая акула для человека абсолютно безопасна, так как питается исключительно планктоном и прочими мелкими организмами, которых она фильтрует, втягивая в себя воду. Большую часть года эти акулы проводят в открытом океане, лишь на короткий период времени появляясь у тропических берегов и коралловых рифов. Авторы этой программы отправляются в экспедицию, чтобы проследить перемещения нескольких китовых акул. Если все пойдет по плану, они смогут раскрыть одну из великих тайн океана.



Видео: 1280x720 (16:9), 25 fps, AVC (x264), ~3463 kbps avg, 0.150 bit/pixel
Аудио #1: Русский 48 kHz, AC3, 2 ch, ~192.00 kbps avg
Аудио #2: Английский 48 kHz, AC3, 2 ch, ~192.00 kbps avg (Оригинал)

Доп. информация: Фильм озвучен студией "Кипарис", по заказу "Союз-Видео"

Релиз: Documentalist
Общее
Уникальный идентификатор : 193224981101394560542207858302154715312 (0x915DC7180C1EBFA8BAA1AB723D4430B0)
Полное имя : D:\Китовая акула (Whale Shark) 2008 HDTVRip (720p).mkv
Формат : Matroska
Версия формата : Version 4 / Version 2
Размер файла : 1,31 Гбайт
Продолжительность : 48 м.
Общий поток : 3844 Кбит/сек
Название фильма : Natural World: Whale Shark
Дата кодирования : UTC 2017-08-09 01:43:35
Программа кодирования : mkvmerge v7.8.0 ('River Man') 32bit built on Mar 27 2015 16:18:02
Библиотека кодирования : libebml v1.3.1 + libmatroska v1.4.2

Видео
Идентификатор : 1
Формат : AVC
Формат/Информация : Advanced Video Codec
Профиль формата :
Параметр CABAC формата : Да
Параметр ReFrames формата : 6 кадров
Идентификатор кодека : V_MPEG4/ISO/AVC
Продолжительность : 48 м.
Битрейт : 3463 Кбит/сек
Ширина : 1280 пикселей
Высота : 720 пикселей
Соотношение сторон : 16:9
Режим частоты кадров : Постоянный
Частота кадров : 25,000 кадров/сек
Цветовое пространство : YUV
Субдискретизация насыщенности : 4:2:0
Битовая глубина : 8 бит
Тип развёртки : Прогрессивная
Бит/(Пиксели*Кадры) : 0.150
Размер потока : 1,18 Гбайт (90%)
Библиотека кодирования : x264 core 148 r2692 64f4e24
Настройки программы : cabac=1 / ref=6 / deblock=1:0:0 / analyse=0x3:0x113 / me=umh / subme=9 / psy=1 / psy_rd=1.00:0.00 / mixed_ref=1 / me_range=24 / chroma_me=1 / trellis=1 / 8x8dct=1 / cqm=0 / deadzone=21,11 / fast_pskip=0 / chroma_qp_offset=-2 / threads=3 / lookahead_threads=1 / sliced_threads=0 / nr=0 / decimate=1 / interlaced=0 / bluray_compat=0 / constrained_intra=0 / bframes=5 / b_pyramid=2 / b_adapt=2 / b_bias=0 / direct=1 / weightb=1 / open_gop=0 / weightp=2 / keyint=250 / keyint_min=25 / scenecut=40 / intra_refresh=0 / rc_lookahead=40 / rc=crf / mbtree=1 / crf=19.0 / qcomp=0.60 / qpmin=0 / qpmax=69 / qpstep=4 / ip_ratio=1.40 / aq=1:1.00
Язык : English
Default : Да
Forced : Нет

Аудио #1
Идентификатор : 2
Формат : AC-3
Формат/Информация : Audio Coding 3
Расширение режима : CM (complete main)
Параметр Endianness формата : Big
Идентификатор кодека : A_AC3
Продолжительность : 48 м.
Вид битрейта : Постоянный
Битрейт : 192 Кбит/сек
Каналы : 2 канала
Расположение каналов : Front: L R
Частота : 48,0 КГц
Частота кадров : 31,250 кадров/сек (1536 spf)
Метод сжатия : С потерями
Размер потока : 67,0 Мбайт (5%)
Язык : Russian
Default : Да
Forced : Нет

Аудио #2
Идентификатор : 3
Формат : AC-3
Формат/Информация : Audio Coding 3
Расширение режима : CM (complete main)
Параметр Endianness формата : Big
Идентификатор кодека : A_AC3
Продолжительность : 48 м.
Вид битрейта : Постоянный
Битрейт : 192 Кбит/сек
Каналы : 2 канала
Расположение каналов : Front: L R
Частота : 48,0 КГц
Частота кадров : 31,250 кадров/сек (1536 spf)
Метод сжатия : С потерями
Размер потока : 66,9 Мбайт (5%)
Язык : English
Default : Нет
Forced : Нет

Текст
Идентификатор : 4
Формат : UTF-8
Идентификатор кодека : S_TEXT/UTF8
Идентификатор кодека/Информация : UTF-8 Plain Text
Продолжительность : 47 м.
Битрейт : 80 бит/сек
Count of elements : 571
Размер потока : 28,4 Кбайт (0%)
Язык : English
Default : Нет
Forced : Нет














   Похожие торренты   Торрент   Размер 
В этой теме нет новых непрочитанных сообщений. Китовая акула / Whale Shark (Эмма Росс, Сара Кунлайфф) [2008, документальный, природа, зоология, DVDRip] VO

26 | 0

700.39 МБ

В этой теме нет новых непрочитанных сообщений. BBC: Китовая акула / BBC: Whale Shark (2008) DVDRip от Киномагия

0 | 2

1.18 ГБ

В этой теме нет новых непрочитанных сообщений. Приключения на троих (1-13 серии из 14) / Which Way To... (Eager Brothers Productions) [2008-2009, документальный, познавательный, природа, путешествия, HDTVRip 720р] MVO / Blu-Ray / BDRip / HDTV

0 | 4

15.06 ГБ

В этой теме нет новых непрочитанных сообщений. Путешествие на край света с Артом Вольфом (1-2 сезоны, 1-26 серии из 26) / Travels to the Edge with Art Wolfe (Дан Ларсон, Шон Уайт) [2007-2008, документальный, познавательный, природа, HDTVRip 720р] DVO / Blu-Ray / BDRip / HDTV

6 | 0

14.89 ГБ

В этой теме нет новых непрочитанных сообщений. Река без границ / River without frontiers (Франц Хэфнер) [2009, документальный, природа, флора, фауна, HDTVRip 720р] VO / Blu-Ray / BDRip / HDTV

2 | 0

1.59 ГБ

В этой теме нет новых непрочитанных сообщений. Удивительные большероты / Incredible Gulpers (Ванесса Лукас) [2016, документальный, природа, флора, фауна, HDTVRip 720р] VO / Blu-Ray / BDRip / HDTV

3 | 0

1.57 ГБ

В этой теме нет новых непрочитанных сообщений. Неделя акул (1-8 серии из 8) / Discovery. Shark Week (Discovery Channel HD) [2017, документальный, исследование, акулы, хищники, HDTVRip 720р] DUB / Blu-Ray / BDRip / HDTV

2 | 2

10.21 ГБ




Вы не можете начинать темы
Вы не можете отвечать на сообщения
Вы не можете редактировать свои сообщения
Вы не можете удалять свои сообщения
Вы не можете добавлять вложения

Перейти:  
Для Мосгорсуда, Роскомнадзора и рекламодателей: mosgorsud-torrent[собачка]yandex.ru
 Вход
ppkBB3cker v.2 © 2008-2014 @ PPK
[ Time : 4.821s | 18 Queries | GZIP : Off ]

cron