img image001 image001 image001 image001 image001 image001 image001 image001 image001 image001 image001 image001 image001 image001 image001

Planets Sun Sun Sun
Статистика раздачи
Автор: Nickolas3434 | Размер: 903.67 МБ | Добавлен: 12 авг 2017
Раздают: 4    Качают: 0
Скачать торрент
Скачать торрент
Описание торрента

СообщениеДобавлено: 12 авг 2017 

60 минут. КНДР угрожает США ядерным ударом (Эфир от 09.08.2017)
Оценка релиза: 

Перевод: Не требуется, cубтитры: отсутствуют
Формат: HDTVRip 720p, MKV, H.264, AC3
Страна: Россия
Режиссер: ТК Россия-1
Жанр: ток-шоу
Продолжительность: ~ 01:05:00
Год выпуска: 2016

Описание: Ток-шоу с Ольгой Скабеевой и Евгением Поповым.
В новом социально-политическом ток-шоу каждый день ведущие и гости программы обсуждают главную тему текущего дня. В студию приглашаются политические и общественные деятели, эксперты по актуальной проблематике.


Видео: 1280x720 (16:9), 25 fps, AVC (x264) , ~2278 kbps avg, 0.99 bit/pixe
Аудио: 48 kHz, AC3 Dolby Digital, 2/0 (L,R) ch, ~192.00 kbps avg

Доп. информация:
Скриншоты взяты с пред. выпусков.

Общее
Полное имя : C:\Россия HD_60 минут_09.08.2017.mkv
Формат : Matroska
Версия формата : Version 2
Размер файла : 1,03 Гбайт
Продолжительность : 59 м. 56 с.
Общий поток : 2454 Кбит/сек
Программа кодирования : libmatroska 1.4.1
Библиотека кодирования : SolveigMM Matroska Muxer Version 1.0.1502.31

Видео
Идентификатор : 1
Формат : AVC
Формат/Информация : Advanced Video Codec
Профиль формата :
Параметр CABAC формата : Нет
Параметр RefFrames формата : 1 кадр
Параметр GOP формата : M=1, N=25
Идентификатор кодека : V_MPEG4/ISO/AVC
Продолжительность : 59 м. 56 с.
Битрейт : 2278 Кбит/сек
Ширина : 1280 пикселей
Высота : 720 пикселей
Соотношение сторон : 16:9
Режим частоты кадров : Постоянный
Частота кадров : 25,000 кадров/сек
Цветовое пространство : YUV
Субдискретизация насыщенности : 4:2:0
Битовая глубина : 8 бит
Тип развёртки : Прогрессивная
Бит/(Пиксели*Кадры) : 0.099
Размер потока : 977 Мбайт (93%)
Default : Нет
Forced : Нет

Аудио
Идентификатор : 2
Формат : AC-3
Формат/Информация : Audio Coding 3
Параметр Endianness формата : Big
Идентификатор кодека : A_AC3
Продолжительность : 59 м. 56 с.
Вид битрейта : Постоянный
Битрейт : 128 Кбит/сек
Каналы : 2 канала
Расположение каналов : Front: L R
Частота : 48,0 КГц
Частота кадров : 31,250 кадров/сек (1536 SPF)
Битовая глубина : 16 бит
Метод сжатия : С потерями
Размер потока : 54,9 Мбайт (5%)
ServiceKind/String : Complete Main
Default : Нет
Forced : Нет










   Похожие торренты   Торрент   Размер 
В этой теме нет новых непрочитанных сообщений. 60 минут. КНДР угрожает США ядерным ударом (Эфир от 09.08.2017) (ТК Россия-1) [2017, ток шоу, аналитика, HDTVRip]

0 | 0

786.27 МБ

В этой теме нет новых непрочитанных сообщений. 60 минут. США и КНДР: за кем будет последнее слово? (Эфир от 10.08.2017) (ТК Россия-1) [2017, ток шоу, аналитика, HDTVRip]

11 | 0

1.07 ГБ

В этой теме нет новых непрочитанных сообщений. 60 минут. Россия - США: куда заведёт дипломатический конфликт? (Эфир от 01.08.2017) (ТК Россия-1) [2016, ток-шоу, HDTVRip 720p]

18 | 0

1.69 ГБ

В этой теме нет новых непрочитанных сообщений. 60 минут. Гонка санкций: Как далеко всё может зайти? (Эфир от 31.07.2017) (ТК Россия-1) [2016, ток-шоу, HDTVRip 720p]

11 | 0

1.03 ГБ

В этой теме нет новых непрочитанных сообщений. 60 минут. США приостановили выдачу виз россиянам (Эфир от 21.08.2017) (ТК Россия-1) [2017, ток-шоу, HDTVRip 720p]

0 | 0

831.65 МБ

В этой теме нет новых непрочитанных сообщений. 60 минут. Трамп строит базу ВМФ на Украине (Эфир от 11.08.2017) (ТК Россия-1) [2017, ток-шоу, HDTVRip 720p]

4 | 0

928.57 МБ

В этой теме нет новых непрочитанных сообщений. 60 минут. Санкционный узел: Россия ответила США (Спецвыпуск) (Эфир от 28.07.2017) (ТК Россия-1) [2017, ток шоу, аналитика, HDTVRip]

3 | 0

1.45 ГБ




Вы не можете начинать темы
Вы не можете отвечать на сообщения
Вы не можете редактировать свои сообщения
Вы не можете удалять свои сообщения
Вы не можете добавлять вложения

Перейти:  
Для Мосгорсуда, Роскомнадзора и рекламодателей: mosgorsud-torrent[собачка]yandex.ru
 Вход
ppkBB3cker v.2 © 2008-2014 @ PPK
[ Time : 0.026s | 19 Queries | GZIP : Off ]

cron