img image001 image001 image001 image001 image001 image001 image001 image001 image001 image001 image001 image001 image001 image001 image001

Planets Sun Sun Sun
Статистика раздачи
Автор: Nickolas3434 | Размер: 928.57 МБ | Добавлен: 12 авг 2017
Раздают: 4    Качают: 0
Скачать торрент
Скачать торрент
Описание торрента

СообщениеДобавлено: 12 авг 2017 

60 минут. Трамп строит базу ВМФ на Украине (Эфир от 11.08.2017)


Перевод: Не требуется, cубтитры: отсутствуют
Формат: HDTVRip 720p, MKV, H.264, AC3
Страна: Россия
Режиссер: ТК Россия-1
Жанр: ток-шоу
Продолжительность: ~ 01:05:00
Год выпуска: 2017

Описание: Ток-шоу с Ольгой Скабеевой и Евгением Поповым.
В новом социально-политическом ток-шоу каждый день ведущие и гости программы обсуждают главную тему текущего дня. В студию приглашаются политические и общественные деятели, эксперты по актуальной проблематике.


Видео: 1280x720 (16:9), 25 fps, AVC (x264) , ~2278 kbps avg, 0.99 bit/pixe
Аудио: 48 kHz, AC3 Dolby Digital, 2/0 (L,R) ch, ~192.00 kbps avg

Доп. информация:
Скриншоты взяты с пред. выпусков.

Общее
Полное имя : C:\Россия HD_60 минут_11.08.2017.mkv
Формат : Matroska
Версия формата : Version 2
Размер файла : 1,03 Гбайт
Продолжительность : 59 м. 56 с.
Общий поток : 2454 Кбит/сек
Программа кодирования : libmatroska 1.4.1
Библиотека кодирования : SolveigMM Matroska Muxer Version 1.0.1502.31

Видео
Идентификатор : 1
Формат : AVC
Формат/Информация : Advanced Video Codec
Профиль формата :
Параметр CABAC формата : Нет
Параметр RefFrames формата : 1 кадр
Параметр GOP формата : M=1, N=25
Идентификатор кодека : V_MPEG4/ISO/AVC
Продолжительность : 59 м. 56 с.
Битрейт : 2278 Кбит/сек
Ширина : 1280 пикселей
Высота : 720 пикселей
Соотношение сторон : 16:9
Режим частоты кадров : Постоянный
Частота кадров : 25,000 кадров/сек
Цветовое пространство : YUV
Субдискретизация насыщенности : 4:2:0
Битовая глубина : 8 бит
Тип развёртки : Прогрессивная
Бит/(Пиксели*Кадры) : 0.099
Размер потока : 977 Мбайт (93%)
Default : Нет
Forced : Нет

Аудио
Идентификатор : 2
Формат : AC-3
Формат/Информация : Audio Coding 3
Параметр Endianness формата : Big
Идентификатор кодека : A_AC3
Продолжительность : 59 м. 56 с.
Вид битрейта : Постоянный
Битрейт : 128 Кбит/сек
Каналы : 2 канала
Расположение каналов : Front: L R
Частота : 48,0 КГц
Частота кадров : 31,250 кадров/сек (1536 SPF)
Битовая глубина : 16 бит
Метод сжатия : С потерями
Размер потока : 54,9 Мбайт (5%)
ServiceKind/String : Complete Main
Default : Нет
Forced : Нет










   Похожие торренты   Торрент   Размер 
В этой теме нет новых непрочитанных сообщений. 60 минут. Трамп строит базу ВМФ на Украине (Эфир от 11.08.2017) (ТК Россия-1) [2017, ток шоу, аналитика, HDTVRip]

44 | 0

1.11 ГБ

В этой теме нет новых непрочитанных сообщений. 60 минут. Трамп нацелился на Афганистан (Эфир от 22.08.2017) (ТК Россия-1) [2017, ток шоу, аналитика, HDTVRip]

21 | 0

767.13 МБ

В этой теме нет новых непрочитанных сообщений. 60 минут. Дональд Трамп и его послание миру (Эфир от 19.09.2017) (ТК Россия-1) [2017, ток шоу, аналитика, HDTVRip]

4 | 4

763.27 МБ

В этой теме нет новых непрочитанных сообщений. 60 минут. Долго ли Трамп удержится в Белом доме? (Эфир от 03.08.2017) (ТК Россия-1) [2017, ток шоу, аналитика, HDTVRip]

24 | 4

770.34 МБ

В этой теме нет новых непрочитанных сообщений. 60 минут. Трамп подписал закон об антироссийских санкциях (Эфир от 02.08.2017) (ТК Россия-1) [2017, ток шоу, аналитика, HDTVRip]

9 | 0

768.44 МБ

В этой теме нет новых непрочитанных сообщений. 60 минут. Шухевич фест: на Украине чествуют карателя и фашиста (Эфир от 30.06.2017) (ТК Россия-1) [2017, ток-шоу, HDTVRip]

2 | 0

769.14 МБ

В этой теме нет новых непрочитанных сообщений. 60 минут. США приостановили выдачу виз россиянам (Эфир от 21.08.2017) (ТК Россия-1) [2017, ток-шоу, HDTVRip 720p]

0 | 0

831.65 МБ




Вы не можете начинать темы
Вы не можете отвечать на сообщения
Вы не можете редактировать свои сообщения
Вы не можете удалять свои сообщения
Вы не можете добавлять вложения

Перейти:  
Для Мосгорсуда, Роскомнадзора и рекламодателей: mosgorsud-torrent[собачка]yandex.ru
 Вход
ppkBB3cker v.2 © 2008-2014 @ PPK
[ Time : 0.040s | 18 Queries | GZIP : Off ]

Торрент трекер RUTOR.IN, Не можете зайти на rutor.org? Какой новый адрес рутор? Какое зеркало рутор? Не работает rutor.org и зеркала? Тогда наш торрент специально для вас. Rutor.in неофициальное зеркало rutor. В случае если у Вас заблокирован rutor или вдруг Вы не можете на него зайти, то Вы без труда сможете скачать бесплатно и без рекламы последние новинки кино, игр, сериалов и прочего у нас, на Rutor.in. Не нужно использовать прокси, чтобы зайти на рутор, достаточно воспользоваться нашим ресурсом. Все новые фильмы, игры, сериалы, книги и музыка за 2013 и 2014 годы через торрент бесплатно. Скачивайте фильмы в хорошем качестве, игры для пк, xbox, playstation без регистрации. У нас вы найдете новые Зарубежные сериалы и Русские сериалы 2013, 2014, 2015 годов. Оставайтесь с нами, качайте любимые фильмы, игры, сериалы, книги и музыку.
cron