img image001 image001 image001 image001 image001 image001 image001 image001 image001 image001 image001 image001 image001 image001 image001

Planets Sun Sun Sun
Статистика раздачи
Автор: Nickolas3434 | Размер: 1.77 ГБ | Добавлен: 12 авг 2017
Раздают: 21    Качают: 0
Скачать торрент
Скачать торрент
Описание торрента

СообщениеДобавлено: 12 авг 2017 

ДНК мертвых знаменитостей (1 сезон: 1-2 серии из 3) / Dead Famous DNA
Оценка релиза: 
Перевод: Профессиональный (одноголосый), cубтитры: отсутствуют
Формат: DVB, MPEG-TS, MPEG2, MP2/MP2
Страна: Великобритания, Double Act Productions
Режиссер: Роб Дейвис
Жанр: документальный, история, исследования
Продолжительность: 2 x ~00:47:00
Год выпуска: 2014

Описание: Вместе с Марком Эвансом мы попытаемся добыть и изучить ДНК из останков как можно большего количества знаменитых личностей. Нам предстоит узнать кем были эти люди на самом деле. Нам предстоит расшифровать генетический код этих людей.



Рейтинг MPAA -

Видео: 720х576@1024x576 (16:9), 25 fps, MPEG-2 (Main@Main) ~2335 kbps avg, 0.225 bit/pixel
Аудио #1: Русский 48 kHz, MPEG Layer 2, 2 ch, ~192.00 kbps avg
Аудио #2: Английский 48 kHz, MPEG Layer 2, 2 ch, ~192.00 kbps avg (Оригинал)

Доп. информация: переведено и озвучено на студии "SDI Media", перевод Анны Заславской, текст читает Владислав Букин
размер кадра - анаморфный - (1024x576)

Автор рипа и постера: skorpionN

Раздача ведётся путём добавления новых серий; при каждом добавлении создаётся новый торрент. Чтобы начать докачку новой серии, пользователям необходимо сделать следующее:
- Остановить скачивание.
- Удалить старый торрент у себя из клиента (старые серии удалять не надо).
- Скачать новый торрент и запустить его у себя в клиенте вместо старого, при этом указать клиенту путь в старую папку куда и должно происходить скачивание новых серий.

01. Эпизод 1
Марк Эванс узнает, что Элвис Пресли, возможно, страдал от генетического заболевания сердца, известного как гипертрофическая кардиомиопатия, которое могло стать причиной его ранней трагической смерти.

02. Эпизод 2
Марк Эванс пытается изучать Джона Ф. Кеннеди и Мэрилин Монро по образцам их волос. Также он отправляется в Нью-Джерси, чтобы своими глазами взглянуть на пенис Наполеона!

03. Эпизод 3
Марк Эванс идет по следу реликвий, якобы принадлежавших Адольфу Гитлеру и Еве Браун: от костей, которые продал перебежчик из КГБ, до волос, найденных на расческе в горном убежище фюрера.


Код:
Код:
Общее
Идентификатор : 1 (0x1)
Полное имя : D:\Dead Famous DNA\Episode_1.ts
Формат : MPEG-TS
Размер файла : 953 Мбайт
Продолжительность : 46 м.
Режим общего битрейта : Переменный
Общий поток : 2864 Кбит/сек

Видео
Идентификатор : 206 (0xCE)
Идентификатор меню : 19106 (0x4AA2)
Формат : MPEG Video
Версия формата : Version 2
Профиль формата : Main@Main
Параметр BVOP формата : Да
Параметр матрицы формата : Выборочная
Параметр GOP формата : M=3, N=15
Структура изображения : Frame
Идентификатор кодека : 2
Продолжительность : 46 м.
Вид битрейта : Переменный
Битрейт : 2335 Кбит/сек
Максимальный битрейт : 9800 Кбит/сек
Ширина : 720 пикселей
Высота : 576 пикселей
Соотношение сторон : 16:9
Частота кадров : 25,000 кадров/сек
Стандарт вещания : PAL
Цветовое пространство : YUV
Субдискретизация насыщенности : 4:2:0
Битовая глубина : 8 бит
Тип развёртки : Чересстрочная
Порядок развёртки : Верхнее поле первое
Метод сжатия : С потерями
Бит/(Пиксели*Кадры) : 0.225
Временной код первого кадра : 00:00:00:00
Оригинал временного кода : Group of pictures header
GOP, открыто/закрыто : Открыто
GOP, открыто/закрыто на первом кадре : Закрыто
Размер потока : 777 Мбайт (82%)

Аудио #1
Идентификатор : 306 (0x132)
Идентификатор меню : 19106 (0x4AA2)
Формат : MPEG Audio
Версия формата : Version 1
Профиль формата : Layer 2
Идентификатор кодека : 3
Продолжительность : 46 м.
Вид битрейта : Постоянный
Битрейт : 192 Кбит/сек
Каналы : 2 канала
Частота : 48,0 КГц
Метод сжатия : С потерями
Размер потока : 63,9 Мбайт (7%)
Язык : Russian

Аудио #2
Идентификатор : 307 (0x133)
Идентификатор меню : 19106 (0x4AA2)
Формат : MPEG Audio
Версия формата : Version 1
Профиль формата : Layer 2
Идентификатор кодека : 3
Продолжительность : 46 м.
Вид битрейта : Постоянный
Битрейт : 192 Кбит/сек
Каналы : 2 канала
Частота : 48,0 КГц
Метод сжатия : С потерями
Размер потока : 63,9 Мбайт (7%)
Язык : English




















   Похожие торренты   Торрент   Размер 
В этой теме нет новых непрочитанных сообщений. Секреты подземелья (1 сезон: 1-2 серии из 8 ) / Secrets of the Underground (Уильям Морган) [2017, документальный, археология, история, исследования, DVB] VO

30 | 12

2.14 ГБ

В этой теме нет новых непрочитанных сообщений. Генрих и Анна: Любовники, изменившие историю (1-2 серии из 2) / Henry and Anne The Lovers Who Changed History [2014, документальный, история, исследования, DVB] VO

16 | 4

1.56 ГБ

В этой теме нет новых непрочитанных сообщений. Мой домашний динозавр (43 сезон: 8 эпизод) / My Pet Dinosaur (Марк Эверест) [2007, документальный, археология, история, исследования, DVB] DVO

12 | 6

1.01 ГБ

В этой теме нет новых непрочитанных сообщений. Инки: Владыки облаков (1-2 серии из 2) / The Inca: Masters of the Clouds (Доминик Галлахер) [2015, документальный, история, исследования, HDTVRip] VO

42 | 2

1.64 ГБ

В этой теме нет новых непрочитанных сообщений. Тайны царственных убийств (3 серии из 6) / Royal Murder Mysteries (Дэнни О'брайан) [2016, документальный, игровой, история, исследования, DVB] VO

22 | 10

2.45 ГБ

В этой теме нет новых непрочитанных сообщений. Забытые британские рабовладельцы (1-2 серии из 2) / Britain's Forgotten Slave Owners (Джеймс Ван Дер Пул, Бен Кричтон) [2015, документальный, история, исследования, DVB] DVO

34 | 4

1.6 ГБ

В этой теме нет новых непрочитанных сообщений. Инки: Владыки облаков (1-2 серии из 2) / The Inca: Masters of the Clouds (Доминик Галлахер) [2015, документальный, история, исследования, HDTVRip 720p] VO / Blu-Ray / BDRip / HDTV

15 | 0

3.6 ГБ




Вы не можете начинать темы
Вы не можете отвечать на сообщения
Вы не можете редактировать свои сообщения
Вы не можете удалять свои сообщения
Вы не можете добавлять вложения

Перейти:  
Для Мосгорсуда, Роскомнадзора и рекламодателей: mosgorsud-torrent[собачка]yandex.ru
 Вход
ppkBB3cker v.2 © 2008-2014 @ PPK
[ Time : 0.049s | 18 Queries | GZIP : Off ]

Торрент трекер RUTOR.IN, Не можете зайти на rutor.org? Какой новый адрес рутор? Какое зеркало рутор? Не работает rutor.org и зеркала? Тогда наш торрент специально для вас. Rutor.in неофициальное зеркало rutor. В случае если у Вас заблокирован rutor или вдруг Вы не можете на него зайти, то Вы без труда сможете скачать бесплатно и без рекламы последние новинки кино, игр, сериалов и прочего у нас, на Rutor.in. Не нужно использовать прокси, чтобы зайти на рутор, достаточно воспользоваться нашим ресурсом. Все новые фильмы, игры, сериалы, книги и музыка за 2013 и 2014 годы через торрент бесплатно. Скачивайте фильмы в хорошем качестве, игры для пк, xbox, playstation без регистрации. У нас вы найдете новые Зарубежные сериалы и Русские сериалы 2013, 2014, 2015 годов. Оставайтесь с нами, качайте любимые фильмы, игры, сериалы, книги и музыку.
cron