img image001 image001 image001 image001 image001 image001 image001 image001 image001 image001 image001 image001 image001 image001 image001

Planets Sun Sun Sun

COVID-19 - Последняя информация о коронавирусе на сайте Минздрава


Статистика раздачи
Автор: Nickolas3434 | Размер: 32.03 ГБ | Добавлен: 19 авг 2017
Раздают: 0    Качают: 2
Скачать торрент
Скачать торрент
Описание торрента

СообщениеДобавлено: 19 авг 2017 

Путешествие на край света с Артом Вольфом (1-2 сезоны, 1-26 серии из 26) / Travels to the Edge with Art Wolfe


Перевод: Профессиональный (двухголосый), cубтитры: отсутствуют
Формат: HDTV 1080i, MKV, H.264, MP2
Страна: США
Режиссер: Дан Ларсон, Шон Уайт
Жанр: документальный, познавательный, природа, фотография
Продолжительность: 26 x ~ 00:23:00
Год выпуска: 2007-2008

В ролях: Арт Вольф

Описание: На счету легендарного фотографа Арта Вольфа свыше миллиона уникальных кадров и 60 авторских альбомов, многие из которых были удостоены престижных наград. Свое творчество фотомастер всецело посвятил таинствам жизни дикой природы – ее уникальным пейзажам и представителям исчезающих видов. Сериал «Путешествие на край света» приоткрывает завесу тайны над лабораторией фотохудожника. Это история создания неповторимых кадров в тех уголках планеты, куда не ступала нога человека. Через объектив своего фотоаппарата Арт Вольф наблюдает жизнь в суровых льдах Арктики, в раскаленных песках пустыни, в тропиках джунглей и на скалистых побережьях океанов. География фотосессий Вольфа поражает своей экзотикой. Создатели сериала не отступают от фотографа ни на шаг в его путешествиях по заповедным и нетронутым местам нашей планеты. И, где бы ни появлялся Арт Вольф, всюду он предстает не столько в роли фотографа, сколько в амплуа страстного защитника природы, всю свою жизнь пытающегося запечатлеть ее хрупкую красоту...

Рейтинг на:


Видео: 1920x1080 (16:9), 25,000 fps, AVC (х264), , 7234 Кбит/сек, ~ 0.140 bit/pixel
Аудио #1: Русский 48 kHz, MPEG Layer 2, 2 ch, ~192.00 kbps avg
Аудио #2: Английский 48 kHz, MPEG Layer 2, 2 ch, ~192.00 kbps avg Оригинал
(тех. данные серий идентичны)


Format : Matroska
Format version : Version 4 / Version 2
File size : 1.25 GiB
Duration : 23mn 00s
Overall bit rate : 7 773 Kbps
Writing application : mkvmerge v7.7.0 ('Six Voices') 64bit
Writing library : libebml v1.3.1 + libmatroska v1.4.2

Video
ID : 1
Format : AVC
Format/Info : Advanced Video Codec
Format profile :
Format settings, CABAC : Yes
Format settings, ReFrames : 4 frames
Codec ID : V_MPEG4/ISO/AVC
Duration : 23mn 00s
Bit rate : 7 234 Kbps
Width : 1 920 pixels
Height : 1 080 pixels
Display aspect ratio : 16:9
Frame rate mode : Constant
Frame rate : 25.000 fps
Color space : YUV
Chroma subsampling : 4:2:0
Bit depth : 8 bits
Scan type : MBAFF
Bits/(Pixel*Frame) : 0.140
Stream size : 1.16 GiB (93%)
Default : Yes
Forced : No

Audio #1
ID : 2
Format : MPEG Audio
Format version : Version 1
Format profile : Layer 2
Mode : Joint stereo
Mode extension : Intensity Stereo + MS Stereo
Codec ID : A_MPEG/L2
Codec ID/Hint : MP2
Duration : 23mn 00s
Bit rate mode : Constant
Bit rate : 192 Kbps
Channel(s) : 2 channels
Sampling rate : 48.0 KHz
Compression mode : Lossy
Stream size : 31.6 MiB (2%)
Title : Russian
Language : Russian
Default : Yes
Forced : No

Audio #2
ID : 3
Format : MPEG Audio
Format version : Version 1
Format profile : Layer 2
Mode : Joint stereo
Mode extension : Intensity Stereo + MS Stereo
Codec ID : A_MPEG/L2
Codec ID/Hint : MP2
Duration : 23mn 00s
Bit rate mode : Constant
Bit rate : 192 Kbps
Channel(s) : 2 channels
Sampling rate : 48.0 KHz
Compression mode : Lossy
Stream size : 31.6 MiB (2%)
Title : English
Language : English
Default : No
Forced : No



S01E01 Bolivia - The Altiplano (Боливия - Плато Альтиплано)
S01E02 Alaska - Glacier Bay (Аляска - Ледниковый залив)
S01E03 Patagonia - Torres del Paine (Патагония - Национальный парк Торрес-дель-Пайне)
S01E04 Alaska - Katmai Coast (Аляска - Побережье Катмай)
S01E05 Africa - Madagascar (Африка - Мадагаскар)
S01E06 Alaska - Arctic National Wildlife Refuge (Аляска - Национальный арктический заповедник)
S01E07 Peru - Manu (Перу - Заповедник Ману)
S01E08 Kenya - Masai Mara and Laikipia (Кения - Заповедник Масаи-Мара и плато Лайкипия)
S01E09 Patagonia - Mt. Fitz Roy and Cerro Torre (Патагония - Горы Фитцрой и Серро-Торро)
S01E10 The Southwest - Zion and Canyon de Chelly (Юго-запад США - Зайон и Каньон-де-Шей)
S01E11 India - Allahabad and Varanasi (Индия - Аллахабад и Варанаси)
S01E12 The Southern Ocean - South Georgia Island (Южная Атлантика - Остров Южная Георгия)
S01E13 Ethiopia - The Omo Valley (Эфиопия - Долина реки Омо)



S02E01 Japan - Hokkaido and Honshu (Япония - Острова Хоккайдо и Хонсю)
S02E02 Australia - Arnhemland and the Kimberley (Австралия - Арнемленд и Кимберли)
S02E03 Mali - Sahel to the Sahara (Мали - от Сахеля до Сахары)
S02E04 Antarctica and the Falkland Islands (Антарктика и Фолклендские острова)
S02E05 Brazil - The Pantanal (Бразилия - Пантанал)
S02E06 West Africa - Togo and Benin (Западная Африка - Того и Бенин)
S02E07 New Zealand (Новая Зеландия)
S02E08 Wild Asia - Nepal and India (Дикая Азия - Непал и Индия)
S02E09 Mexico - Baja (Мексика - Полуостров Баха)
S02E10 The Kingdom of Bhutan (Королевство Бутан)
S02E11 Mongolia - Mountain to Steppe (Монголия - Горы и степи)
S02E12 Iceland - Earth, Air, Fire and Water (Исландия - Земля, воздух, огонь и вода)
S02E13 The Making of Travels to the Edge (Подробности съёмок программы)
Travels to the Edge with Art Wolfe - Trailer 1 (1-й трейлер от телеканала Travel+Adventure)
Travels to the Edge with Art Wolfe - Trailer 2 (2-й трейлер от телеканала Travel+Adventure)













   Похожие торренты   Торрент   Размер 
В этой теме нет новых непрочитанных сообщений. Путешествие на край света с Артом Вольфом (1-2 сезоны, 1-26 серии из 26) / Travels to the Edge with Art Wolfe (Дан Ларсон, Шон Уайт) [2007-2008, документальный, познавательный, природа, HDTVRip 720р] DVO / Blu-Ray / BDRip / HDTV

2 | 0

14.89 ГБ

В этой теме нет новых непрочитанных сообщений. Путешествие за красотой (В поисках лучшего СПА) (1-10 серии из 10) / SPA Seekers (Sweet Rain Productions) [2008, документальный, познавательный, природа, спа-курорты, HDTV 1080i] DVO / Blu-Ray / BDRip / HDTV

2 | 1

14.44 ГБ

В этой теме нет новых непрочитанных сообщений. Вояж по-французски (Друзья во Франции) (1-3 сезоны, 1-34 серии из 36) / Amis d'en France (Жан-Филипп Урбаш) [2008-2010, документальный, познавательный, путешествия, HDTV 1080i] DVO / Blu-Ray / BDRip / HDTV

2 | 0

48.21 ГБ

В этой теме нет новых непрочитанных сообщений. Лыжная горячка (1-2 сезоны, 1-18 серии из 18) / Travellers With Skis (Ян-Эрик Бломберг) [2011-2013, документальный, познавательный, путешествия, HDTV 1080i] DVO / Blu-Ray / BDRip / HDTV

0 | 3

22.06 ГБ

В этой теме нет новых непрочитанных сообщений. Путешествие за красотой (В поисках лучшего СПА) (1-10 серии из 10) / SPA Seekers (Sweet Rain Productions) [2008, документальный, познавательный, природа, спа-курорты, HDTVRip 720p] DVO / Blu-Ray / BDRip / HDTV

0 | 3

6.7 ГБ

В этой теме нет новых непрочитанных сообщений. Приключения на троих (1-13 серии из 14) / Which Way To... (Eager Brothers Productions) [2008-2009, документальный, познавательный, природа, путешествия, HDTV 1080i] MVO / Blu-Ray / BDRip / HDTV

0 | 2

32.5 ГБ

В этой теме нет новых непрочитанных сообщений. Вояж по-французски (Друзья во Франции) (1-3 сезоны, 1-34 серии из 36) / Amis d'en France (Жан-Филипп Урбаш) [2008-2010, документальный, познавательный, путешествия, HDTVRip 720р] DVO / Blu-Ray / BDRip / HDTV

0 | 2

21.78 ГБ




Вы не можете начинать темы
Вы не можете отвечать на сообщения
Вы не можете редактировать свои сообщения
Вы не можете удалять свои сообщения
Вы не можете добавлять вложения

Перейти:  
Контактная информация: rstracker[пёсик]yandex.ru
 Вход
ppkBB3cker v.2 © 2008-2014 @ PPK
[ Time : 0.022s | 15 Queries | GZIP : Off ]

cron