img image001 image001 image001 image001 image001 image001 image001 image001 image001 image001 image001 image001 image001 image001 image001

Planets Sun Sun Sun
Статистика раздачи
Автор: Nickolas3434 | Размер: 26.02 ГБ | Добавлен: 20 авг 2017
Раздают: 0    Качают: 2
Скачать торрент
Скачать торрент
Описание торрента

СообщениеДобавлено: 20 авг 2017 

Авто S.O.S. (2 сезон, 1-9 серии из 10) / National Geographic. Car S.O.S.


Перевод: Профессиональный (одноголосый), cубтитры: отсутствуют
Формат: HDTV 1080i, MKV, H.264, AC3
Страна: США
Режиссер: National Geographic Channels
Жанр: документальный, телепередача, реалити-шоу
Продолжительность: 9 x ~ 00:44:00
Год выпуска: 2014

Описание: Возьмите одну любимую, но изрядно потрепанную машину, прибавьте хозяина, нуждающегося в помощи, тайком увезите этот автомобиль в прекрасно оборудованную мастерскую, в течение трех недель сдабривайте его смазкой, краской и ноу-хау по авторемонту, а затем верните его ничего не подозревающему владельцу, приправив щедрой порцией сюрприза. Когда автомеханики Тим и Фазз, жаждущие возвращать былую славу машинам, получают очередной вызов, будьте уверены, что скоро начнется настоящее пиршество преображения старых автомобилей.

Рейтинг на:


Видео: 1920x1080 (16:9), 25,000 fps, AVC (х264), High@L4, 8785 Кбит/сек, ~ 0.169 bit/pixel
Аудио: 48 kHz, AC3 6 ch (Front: L C R, Side: L R, LFE) ch, ~384.00 kbps avg
(тех. данные серий идентичны)

Внимание! Раздача ведётся путём добавления новых серий; при каждом добавлении создается новый торрент. Чтобы начать докачку новой серии, пользователям необходимо сделать следующее:
(1) остановить скачивание,
(2) удалить старый торрент у себя из клиента (старые серии удалять не надо),
(3) скачать новый торрент и запустить его у себя в клиенте вместо старого, при этом указать клиенту путь в старую папку куда и должно происходить скачивание новых серий.

Ваш клиент при этом должен произвести хеширование (проверку) старой папки (если не производит сам - помогите ему сделать это), и будет докачивать только те серии которых у вас ещё нет. Старые серии при этом не удаляются, а продолжают раздаваться!

Если вы уже удалили старые серии, то предотвратить повторную закачку старых серий можно, отжав галочку в соответствующих местах при запуске нового торрента. По возможности, желательно не удалять старые серии как можно дольше чтобы релизёр не столько продолжал раздавать старые серии, а смог сконцентрироваться на новых.



General
Полное имя : Car S.O.S. [S2E4] The Herald Angels [HD].mkv
Формат : Matroska
Версия формата : Version 1
Размер файла : 2,90 Гбайт
Продолжительность : 44 м. 24 с.
Общий поток : 9355 Кбит/сек
Программа кодирования : Cyberlink Matroska Muxer v1.0.0
Библиотека кодирования : libebml v0.7.8 + libmatroska v0.8.1
ErrorDetectionType : Per level 1

Видео
Идентификатор : 1
Формат : AVC
Формат/Информация : Advanced Video Codec
Профиль формата : High@L4
Параметр CABAC формата : Да
Параметр RefFrames формата : 2 кадра
Параметр GOP формата : M=3, N=13
Идентификатор кодека : V_MPEG4/ISO/AVC
Продолжительность : 44 м. 24 с.
Битрейт : 8785 Кбит/сек
Ширина : 1920 пикселей
Высота : 1080 пикселей
Соотношение сторон : 16:9
Режим частоты кадров : Постоянный
Частота кадров : 25,000 кадров/сек
Цветовое пространство : YUV
Субдискретизация насыщенности : 4:2:0
Битовая глубина : 8 бит
Тип развёртки : MBAFF
Бит/(Пиксели*Кадры) : 0.169
Размер потока : 2,72 Гбайт (94%)
Язык : English
Default : Да
Forced : Нет

Аудио
Идентификатор : 2
Формат : AC-3
Формат/Информация : Audio Coding 3
Параметр Endianness формата : Big
Идентификатор кодека : A_AC3
Продолжительность : 44 м. 24 с.
Вид битрейта : Постоянный
Битрейт : 384 Кбит/сек
Каналы : 6 каналов
Расположение каналов : Front: L C R, Side: L R, LFE
Частота : 48,0 КГц
Частота кадров : 31,250 кадров/сек (1536 SPF)
Битовая глубина : 16 бит
Метод сжатия : С потерями
Размер потока : 122 Мбайт (4%)
Язык : English
ServiceKind/String : Complete Main
Default : Да
Forced : Нет











   Похожие торренты   Торрент   Размер 
В этой теме нет новых непрочитанных сообщений. Авто S.O.S. (3 сезон, 1-7 серии из 10) / National Geographic. Car S.O.S. (National Geographic Channels) [2015, документальный, телепередача, реалити-шоу, HDTV 1080i] VO

0 | 3

20.31 ГБ

В этой теме нет новых непрочитанных сообщений. Сокровища Тутанхамона (1-3 серии из 3) / National Geographic. Tut's Treasures: Hidden Secrets (National Geographic) [2017, документальный, познавательный, история, исследование, SATRip] DUB

0 | 0

2.13 ГБ

В этой теме нет новых непрочитанных сообщений. Детройт: Новая жизнь машин (1 сезон, 1-7 серии из 8) / Detroit Steel (History) [2017, документальный, телепередача, реалити-шоу, HDTV 1080i] VO

0 | 4

18.16 ГБ

В этой теме нет новых непрочитанных сообщений. Детройт: Новая жизнь машин (1 сезон, 1-8 серии из 8) / Detroit Steel (History) [2017, документальный, телепередача, реалити-шоу, HDTV 1080i] VO / Blu-Ray / BDRip / HDTV

0 | 2

20.76 ГБ

В этой теме нет новых непрочитанных сообщений. National Geographic. Суперсооружения: МегаЗаводы / MegaStructures: Megafactories [44 серии] (2006) HDTV 1080i | Р

4 | 13

112.79 ГБ

В этой теме нет новых непрочитанных сообщений. Человек-медведь / National Geographic. A Man Among Bears (Доминик Френч) [2008, документальный, HDTV 1080i] DUB / Blu-Ray / BDRip / HDTV

0 | 0

2.69 ГБ

В этой теме нет новых непрочитанных сообщений. Кондитер (1 сезон, 1-12 выпуски из 12 + Спецвыпуск + Дайджест) (Пятница) [2017, документальный, телепередача, реалити-шоу, WEB-DL 720р] / Blu-Ray / BDRip / HDTV

6 | 1

24.01 ГБ




Вы не можете начинать темы
Вы не можете отвечать на сообщения
Вы не можете редактировать свои сообщения
Вы не можете удалять свои сообщения
Вы не можете добавлять вложения

Перейти:  
Контактная информация: rstracker[пёсик]yandex.ru
 Вход
ppkBB3cker v.2 © 2008-2014 @ PPK
[ Time : 0.029s | 18 Queries | GZIP : Off ]

cron