img image001 image001 image001 image001 image001 image001 image001 image001 image001 image001 image001 image001 image001 image001 image001 image001

Planets Sun Sun Sun
Статистика раздачи
Автор: Nickolas3434 | Размер: 2.78 ГБ | Добавлен: 25 авг 2017
Раздают: 10    Качают: 0
Скачать торрент
Скачать торрент
Описание торрента

СообщениеДобавлено: 25 авг 2017 

Дикий Запад Африки / NAT GEO WIND. Africa's Wild West


Перевод: Профессиональный (одноголосый) /Студия Велес - текст читает Станислав Войнич/, cубтитры: отсутствуют
Формат: HDTV 1080i, MPEG-TS, H.264, MP2
Страна: США
Режиссер: Франс Леопольд Шмелзер
Жанр: документальный, фауна
Продолжительность: 00:43:59
Год выпуска: 2014

Описание: В одном из самых засушливых мест на планете, покинутом людьми, обитают звери рождённые выживать. Но здесь есть и другие животные, которые выживают вопреки всем трудностям и капризам природы. Около 150 диких лошадей обитают в пустынной местности на западном побережье Намибии, где находится "запретная зона" с её городами-призраками. Пустынные лошади выпущенные на волю сотню лет назад, превратили эту суровую местность в нечто особенное. Именно эта группа прекрасных и стойких животных стала символом одного из самых удивительных мест на Земле - Дикого Запада Африки.

Видео: 1920x1080 (16:9), 25,000 fps, AVC (х264), High@L4, 8220 Кбит/сек, ~ 0.159 bit/pixel
Аудио #1: Русский 48 kHz, MPEG Layer 2, 2 ch, ~192.00 kbps avg
Аудио #2: Английский 48 kHz, MPEG Layer 2, 2 ch, ~192.00 kbps avg Оригинал

Общее
Идентификатор : 1 (0x1)
Полное имя : F:\КИНО\Дикий Запад Африки.ts
Формат : MPEG-TS
Размер файла : 2,78 Гбайт
Продолжительность : 43 м. 59 с.
Режим общего битрейта : Переменный
Общий поток : 9055 Кбит/сек

Видео
Идентификатор : 321 (0x141)
Идентификатор меню : 1 (0x1)
Формат : AVC
Формат/Информация : Advanced Video Codec
Профиль формата : High@L4
Параметр CABAC формата : Да
Параметр RefFrames формата : 4 кадра
Идентификатор кодека : 27
Продолжительность : 43 м. 59 с.
Битрейт : 8220 Кбит/сек
Ширина : 1920 пикселей
Высота : 1080 пикселей
Соотношение сторон : 16:9
Частота кадров : 25,000 кадров/сек
Стандарт вещания : Component
Цветовое пространство : YUV
Субдискретизация насыщенности : 4:2:0
Битовая глубина : 8 бит
Тип развёртки : Чересстрочная
Метод сохранения типа развёртки : Раздельные поля
Порядок развёртки : Верхнее поле первое
Бит/(Пиксели*Кадры) : 0.159
Размер потока : 2,53 Гбайт (91%)
Цветовой диапазон : Limited
Основные цвета : BT.709
Характеристики трансфера : BT.709
Коэффициенты матрицы : BT.709

Аудио #1
Идентификатор : 401 (0x191)
Идентификатор меню : 1 (0x1)
Формат : MPEG Audio
Версия формата : Version 1
Профиль формата : Layer 2
Идентификатор кодека : 3
Продолжительность : 43 м. 59 с.
Вид битрейта : Постоянный
Битрейт : 192 Кбит/сек
Каналы : 2 канала
Частота : 48,0 КГц
Метод сжатия : С потерями
Размер потока : 60,4 Мбайт (2%)
Язык : Russian

Аудио #2
Идентификатор : 451 (0x1C3)
Идентификатор меню : 1 (0x1)
Формат : MPEG Audio
Версия формата : Version 1
Профиль формата : Layer 2
Идентификатор кодека : 3
Продолжительность : 43 м. 59 с.
Вид битрейта : Постоянный
Битрейт : 192 Кбит/сек
Каналы : 2 канала
Частота : 48,0 КГц
Метод сжатия : С потерями
Размер потока : 60,4 Мбайт (2%)
Язык : English













   Похожие торренты   Торрент   Размер 
В этой теме нет новых непрочитанных сообщений. Дикий, дикий Вест / Дикий, дикий Запад / Wild Wild West (1999) BDRip 720p

87 | 13

3.63 ГБ

В этой теме нет новых непрочитанных сообщений. Удивительные слоны (Душа гиганта) / NAT GEO WIND. Soul of the Elephant (Дерек Жубер) [2015, документальный, фауна, HDTV 1080i] VO / Blu-Ray / BDRip / HDTV

4 | 0

2.22 ГБ

В этой теме нет новых непрочитанных сообщений. Дикий, дикий Запад / Wild Wild West (1999) BDRip-AVC от New-Team | D

156 | 21

744.93 МБ

В этой теме нет новых непрочитанных сообщений. Дикий, дикий Запад / Wild Wild West (1999) BDRip 720p

64 | 10

8.37 ГБ

В этой теме нет новых непрочитанных сообщений. Планета попугаев / Planet Parrot (Мэтт Хэмилтон) [2014, документальный, флора, фауна, HDTV 1080i] VO / Blu-Ray / BDRip / HDTV

4 | 5

2.79 ГБ

В этой теме нет новых непрочитанных сообщений. Дикая природа. Южная Африка (1 серия из 3) / Wild South Africa (Томас Бехренд) [2015, документальный, фауна, флора, DVB 1080i] VO

0 | 0

2.93 ГБ

В этой теме нет новых непрочитанных сообщений. Страна зимнего волшебства / Christmas Winter Wonderland (Аннет Шойрих, Клаус Шойрих) [2014, документальный, природа, флора, фауна, HDTV 1080i] VO / Blu-Ray / BDRip / HDTV

2 | 2

2.83 ГБ




Вы не можете начинать темы
Вы не можете отвечать на сообщения
Вы не можете редактировать свои сообщения
Вы не можете удалять свои сообщения
Вы не можете добавлять вложения

Перейти:  
 Вход
ppkBB3cker v.2 © 2008-2014 @ PPK
[ Time : 0.029s | 20 Queries | GZIP : Off ]

cron