img image001 image001 image001 image001 image001 image001 image001 image001 image001 image001 image001 image001 image001 image001 image001

Planets Sun Sun Sun
Статистика раздачи
Автор: Nickolas3434 | Размер: 11.2 ГБ | Добавлен: 25 авг 2017
Раздают: 2    Качают: 4
Скачать торрент
Скачать торрент
Описание торрента

СообщениеДобавлено: 25 авг 2017 

Безумные приключения (3 сезон, 1-10 серии из 10) / Madventures


Перевод: Профессиональный (двухголосый) /Студия АРК ТВ - Александр Гаврилин/, cубтитры: отсутствуют
Формат: HDTV 1080i, MKV, H.264, MP2
Страна: Финляндия
Режиссер: Тунна Милоноф
Жанр: документальный, познавательный, путешествия, экстрим
Продолжительность: 10 x ~ 00:21:00
Год выпуска: 2009

В ролях: Рику Рантала, Тунна Милоноф

Описание: Двое парней из Финляндии - ведущий Рику и оператор Тунна отправляются в одиссею чтобы познакомиться с безумными традициями разных народов и раскрыть тайны нашей планеты. Вдвоём они исследуют самые необычные маршруты мира без съёмочной группы, без охраны и без тормозов!

Видео: 1920x1080 (16:9), 50,000 fps, AVC (х264), , 7298 Кбит/сек, ~ 0.141 bit/pixel
Аудио #1: Русский 48 kHz, MPEG Layer 2, 2 ch, ~192.00 kbps avg
Аудио #2: Английский 48 kHz, MPEG Layer 2, 2 ch, ~192.00 kbps avg Оригинал
(тех. данные всех серий идентичны)

General
Format : Matroska
Format version : Version 4 / Version 2
File size : 1.10 GiB
Duration : 20mn 1s
Overall bit rate : 7 838 Kbps
Writing application : mkvmerge v7.7.0 ('Six Voices') 64bit
Writing library : libebml v1.3.1 + libmatroska v1.4.2

Video
ID : 1
Format : AVC
Format/Info : Advanced Video Codec
Format profile :
Format settings, CABAC : Yes
Format settings, ReFrames : 4 frames
Codec ID : V_MPEG4/ISO/AVC
Duration : 20mn 1s
Bit rate : 7 298 Kbps
Width : 1 920 pixels
Height : 1 080 pixels
Display aspect ratio : 16:9
Frame rate mode : Constant
Frame rate : 25.000 fps
Color space : YUV
Chroma subsampling : 4:2:0
Bit depth : 8 bits
Scan type : MBAFF
Bits/(Pixel*Frame) : 0.141
Stream size : 1.02 GiB (93%)
Default : Yes
Forced : No

Audio #1
ID : 2
Format : MPEG Audio
Format version : Version 1
Format profile : Layer 2
Mode : Joint stereo
Mode extension : Intensity Stereo + MS Stereo
Codec ID : A_MPEG/L2
Codec ID/Hint : MP2
Duration : 20mn 1s
Bit rate mode : Constant
Bit rate : 192 Kbps
Channel(s) : 2 channels
Sampling rate : 48.0 KHz
Compression mode : Lossy
Stream size : 27.5 MiB (2%)
Title : Russian
Language : Russian
Default : Yes
Forced : No

Audio #2
ID : 3
Format : MPEG Audio
Format version : Version 1
Format profile : Layer 2
Mode : Joint stereo
Mode extension : Intensity Stereo + MS Stereo
Codec ID : A_MPEG/L2
Codec ID/Hint : MP2
Duration : 20mn 1s
Bit rate mode : Constant
Bit rate : 192 Kbps
Channel(s) : 2 channels
Sampling rate : 48.0 KHz
Compression mode : Lossy
Stream size : 27.5 MiB (2%)
Title : English
Language : English
Default : No
Forced : No



Доп. информация: Телеканал Travel+Adventure HD почти во всех своих программах обрезает финальные титры. Поэтому не удивляйтесь тому, что каждая серия будет резко заканчиваться через 1-2 секунды после последнего слова сказанного переводчиком.
В раздачу включен трейлер передачи который выполняет роль семпла. Вы можете сначала скачать только этот трейлер и по нему оценить качество картинки и суть самой передачи.


18+ Эти обезбашенные парни на спор творят невероятные вещи и жуют самую непривлекательную еду. Не рекомендуется к просмотру лицам моложе 18 лет.


S03E01 Brazil / Бразилия
S03E02 Southeast Asia / Юго-восточная Азия
S03E03 Japan / Япония
S03E04 ex-USSR / Бывший СССР
S03E05 The Philippines / Филиппины
S03E06 China / Китай
S03E07 Papua New Guinea / Папуа-Новая Гвинея
S03E08 India / Индия
S03E09 Togo & Benin / Того и Бенин
S03E10 Yemen / Йемен













   Похожие торренты   Торрент   Размер 
В этой теме нет новых непрочитанных сообщений. Безумные приключения (3 сезон, 1-10 серии из 10) / Madventures (Тунна Милоноф) [2009, документальный, познавательный, путешествия, экстрим, HDTVRip 720р] DVO / Blu-Ray / BDRip / HDTV

0 | 0

5.17 ГБ

В этой теме нет новых непрочитанных сообщений. Приключения на троих (1-13 серии из 14) / Which Way To... (Eager Brothers Productions) [2008-2009, документальный, познавательный, природа, путешествия, HDTV 1080i] MVO / Blu-Ray / BDRip / HDTV

0 | 3

32.5 ГБ

В этой теме нет новых непрочитанных сообщений. Приключения на троих (1-13 серии из 14) / Which Way To... (Eager Brothers Productions) [2008-2009, документальный, познавательный, природа, путешествия, HDTVRip 720р] MVO / Blu-Ray / BDRip / HDTV

0 | 6

15.06 ГБ

В этой теме нет новых непрочитанных сообщений. В изоляции (1-3 сезоны, 1-37 серии из 37) / Alone (Валери Лалеф) [2015-2016, документальный, познавательный, реалити-шоу, экстрим, HDTV 1080i] MVO / Blu-Ray / BDRip / HDTV

0 | 2

113.28 ГБ

В этой теме нет новых непрочитанных сообщений. Путешествие по священной реке Ганг / Go Ganges! (Джей Джей Келли, Джош Томас) [2012, документальный, познавательный, путешествия, экстрим, HDTV 1080i] DVO / Blu-Ray / BDRip / HDTV

6 | 8

4.53 ГБ

В этой теме нет новых непрочитанных сообщений. Лыжная горячка (1-2 сезоны, 1-18 серии из 18) / Travellers With Skis (Ян-Эрик Бломберг) [2011-2013, документальный, познавательный, путешествия, HDTV 1080i] DVO / Blu-Ray / BDRip / HDTV

0 | 3

22.06 ГБ

В этой теме нет новых непрочитанных сообщений. Вояж по-французски (Друзья во Франции) (1-3 сезоны, 1-34 серии из 36) / Amis d'en France (Жан-Филипп Урбаш) [2008-2010, документальный, познавательный, путешествия, HDTV 1080i] DVO / Blu-Ray / BDRip / HDTV

2 | 0

48.21 ГБ




Вы не можете начинать темы
Вы не можете отвечать на сообщения
Вы не можете редактировать свои сообщения
Вы не можете удалять свои сообщения
Вы не можете добавлять вложения

Перейти:  
Для Мосгорсуда, Роскомнадзора и рекламодателей: mosgorsud-torrent[собачка]yandex.ru
 Вход
ppkBB3cker v.2 © 2008-2014 @ PPK
[ Time : 0.045s | 19 Queries | GZIP : Off ]

cron