img image001 image001 image001 image001 image001 image001 image001 image001 image001 image001 image001 image001 image001 image001 image001

Planets Sun Sun Sun
Статистика раздачи
Автор: Nickolas3434 | Размер: 6.35 ГБ | Добавлен: 17 окт 2017
Раздают: 19    Качают: 0
Скачать торрент
Скачать торрент
Описание торрента

СообщениеДобавлено: 17 окт 2017 

Боевые корабли / Combat Ships
Страна: Великобритания
Производство: Woodcut Media
Год выпуска: 2017
Жанр: документальный, познавательный, флот, война, история
Продолжительность: 10х ~00:44:00
Описание: Боевые корабли - это новый сериал из 10 частей, который показывает, как технологии изменили военно-морскую войну и рассказывает истории о величайших морских битвах, победах и катастрофах на море и под водой...

Перевод: Профессиональный (одноголосый, закадровый)
Субтитры: нет

Качество: HDTVRip
Формат: AVI
Видео кодек: XviD
Аудио кодек: AС3
Видео: 720x400 (16:9), 25.000 fps, XviD build 73 ~1 900 kbps avg
Аудио: 48.0 kHz, AC3 Dolby Digital, 2/0 (L,R) ch, ~192 kbps

Релиз от: alf62
General
Формат : AVI
Формат/Информация : Audio Video Interleave
Размер файла : 650 Мбайт
Продолжительность : 43 м.
Общий поток : 2102 Кбит/сек
Программа кодирования : VirtualDubMod 1.5.10.3 | (build 2550/release)
Библиотека кодирования : VirtualDubMod build 2550/release
Видео
Идентификатор : 0
Формат : MPEG-4 Visual
Профиль формата : Advanced Simple@L5
Параметр BVOP формата : 2
Параметр QPel формата : Нет
Параметр GMC формата : Без точки перехода
Параметр матрицы формата : Default (MPEG)
Идентификатор кодека : XVID
Идентификатор кодека/Подсказка : XviD
Продолжительность : 43 м.
Битрейт : 1900 Кбит/сек
Ширина : 720 пикселей
Высота : 400 пикселей
Соотношение сторон : 16:9
Частота кадров : 25,000 кадров/сек
Цветовое пространство : YUV
Субдискретизация насыщенности : 4:2:0
Битовая глубина : 8 бит
Тип развёртки : Прогрессивная
Метод сжатия : С потерями
Бит/(Пиксели*Кадры) : 0.264
Размер потока : 587 Мбайт (90%)
Библиотека кодирования : XviD 73
Аудио
Идентификатор : 1
Формат : AC-3
Формат/Информация : Audio Coding 3
Расширение режима : CM (complete main)
Параметр Endianness формата : Big
Идентификатор кодека : 2000
Продолжительность : 43 м.
Вид битрейта : Постоянный
Битрейт : 192 Кбит/сек
Каналы : 2 канала
Расположение каналов : Front: L R
Частота : 48,0 КГц
Битовая глубина : 16 бит
Метод сжатия : С потерями
Размер потока : 59,3 Мбайт (9%)
Выравнивание : Разделение по промежуткам
Продолжительность промежутка : 40 мс. (1,00 видеокадр)
Время предзагрузки промежутка : 500 мс.



   Похожие торренты   Торрент   Размер 
В этой теме нет новых непрочитанных сообщений. Viasat History: Боевые корабли / Combat Ships [01-10 из 10] (2017) HDTVRip 720p | Р1

14 | 4

11.16 ГБ

В этой теме нет новых непрочитанных сообщений. Боевые корабли (1 серия из 10) / Combat Ships [2016, флот, война, история, HDTVRip]

6 | 0

649.53 МБ

В этой теме нет новых непрочитанных сообщений. Боевые корабли (1-4 серии из 10) / Combat Ships [2016, флот, война, история, HDTVRip]

2 | 0

2.54 ГБ

В этой теме нет новых непрочитанных сообщений. Боевые корабли (1 серия из 10) / Combat Ships [2016, флот, война, история, HDTVRip (720р)]

2 | 0

1.12 ГБ

В этой теме нет новых непрочитанных сообщений. Боевые корабли (1-4 серии из 10) / Combat Ships [2016, флот, война, история, HDTVRip (720р)]

8 | 0

4.47 ГБ

В этой теме нет новых непрочитанных сообщений. Боевые корабли (1 серия из 10) / Combat Ships [2016, флот, война, история, HDTV (1080р)] DUB

5 | 0

1.39 ГБ

В этой теме нет новых непрочитанных сообщений. Боевые корабли (1-4 серии из 10) / Combat Ships [2016, флот, война, история, HDTV (1080р)] DUB

0 | 0

5.59 ГБ




Вы не можете начинать темы
Вы не можете отвечать на сообщения
Вы не можете редактировать свои сообщения
Вы не можете удалять свои сообщения
Вы не можете добавлять вложения

Перейти:  
Для Мосгорсуда, Роскомнадзора и рекламодателей: mosgorsud-torrent[собачка]yandex.ru
 Вход
ppkBB3cker v.2 © 2008-2014 @ PPK
[ Time : 0.030s | 19 Queries | GZIP : Off ]

cron