img image001 image001 image001 image001 image001 image001 image001 image001 image001 image001 image001 image001 image001 image001 image001

Planets Sun Sun Sun
Статистика раздачи
Автор: Nickolas3434 | Размер: 1.01 ГБ | Добавлен: 10 ноя 2017
Раздают: 4    Качают: 2
Скачать торрент
Скачать торрент
Описание торрента

СообщениеДобавлено: 10 ноя 2017 

Информация о фильме
Название: Внимание: эти лекарства могут вас убить
Оригинальное название: Warning: This Drug May Kill You
Год выхода: 2017
Жанр: Документальный
Режиссер: Перри Пельтц
О фильме:
Фильм рассказывает про то, как мощные обезболивающие, принимаемые пациентами по рецептам врачей, приводят к наркотической зависимости, а зачастую, к смерти. Вы увидите четыре истории четырех семей, которые столкнулись с этой ужасной проблемой.

Страна: США
Продолжительность: 00:59:22
Перевод: Любительский (двухголосый закадровый) | RecentFilms
Файл
Кодек: XviD
Качество: WEBRip
Видео: 720x416, 23,976 fps, ~2224 Kbps, 0.31 bit/pixel
Звук:
Аудио rus: AC3, 48 kHz, 2 ch, 192 Kbps
Субтитры: отсутствуют
Реклама: присутствует
Семпл
General
Complete name : F:FilmsWarning.This.Drug.May.Kill.You.2017.WEBRip.RecentFilmsWarning.This.Drug.May.Kill.You.2017.WEBRip.RecentFilms.avi
Format : AVI
Format/Info : Audio Video Interleave
Format profile : OpenDML
File size : 1.01 GiB
Duration : 59mn 22s
Overall bit rate : 2 423 Kbps
Writing application : Lavf57.71.100
Video
ID : 0
Format : MPEG-4 Visual
Format profile : Advanced Simple@L5
Format settings, BVOP : 1
Format settings, QPel : No
Format settings, GMC : No warppoints
Format settings, Matrix : Default (H.263)
Codec ID : XVID
Codec ID/Hint : XviD
Duration : 59mn 22s
Bit rate : 2 217 Kbps
Width : 720 pixels
Height : 416 pixels
Display aspect ratio : 16:9
Frame rate : 23.976 (24000/1001) fps
Color space : YUV
Chroma subsampling : 4:2:0
Bit depth : 8 bits
Scan type : Progressive
Compression mode : Lossy
Bits/(Pixel*Frame) : 0.309
Stream size : 942 MiB (91%)
Writing library : XviD 67
Audio
ID : 1
Format : AC-3
Format/Info : Audio Coding 3
Mode extension : CM (complete main)
Format settings, Endianness : Big
Codec ID : 2000
Duration : 59mn 22s
Bit rate mode : Constant
Bit rate : 192 Kbps
Channel(s) : 2 channels
Channel positions : Front: L R
Sampling rate : 48.0 KHz
Frame rate : 31.250 fps (1536 spf)
Bit depth : 16 bits
Compression mode : Lossy
Stream size : 81.5 MiB (8%)
Alignment : Aligned on interleaves
Interleave, duration : 32 ms (0.77 video frame)


Релиз от: RecentFilms



   Похожие торренты   Торрент   Размер 
В этой теме нет новых непрочитанных сообщений. Внимание: эти лекарства могут вас убить / Warning: This Drug May Kill You (2017) WEBRip | L2

0 | 0

1.36 ГБ

В этой теме нет новых непрочитанных сообщений. Внимание: эти лекарства могут вас убить / Warning: This Drug May Kill You (2017) WEBRip 1080p | L2

3 | 1

2.77 ГБ

В этой теме нет новых непрочитанных сообщений. Nat Geo Wild: 20 животных, которые могут вас убить / 20 Animals that Will Kill You (2012) HDTVRip-AVC от Leo.pard | D

56 | 6

700.59 МБ

В этой теме нет новых непрочитанных сообщений. Nat Geo Wild: 20 животных, которые могут вас убить / 20 Animals that Will Kill You (2012) HDTVRip от Leo.pard | D

271 | 19

699.54 МБ

В этой теме нет новых непрочитанных сообщений. С точки зрения науки: Внимание Цунами / National Geographic: Tsunami Warning (2005) TVRip

0 | 110

1.2 ГБ

В этой теме нет новых непрочитанных сообщений. Убить за 68 / 68 Kill (2017) WEB-DLRip | L

319 | 8

1.45 ГБ

В этой теме нет новых непрочитанных сообщений. Убить за 68 / 68 Kill (2017) WEB-DLRip | L

238 | 5

1.37 ГБ




Вы не можете начинать темы
Вы не можете отвечать на сообщения
Вы не можете редактировать свои сообщения
Вы не можете удалять свои сообщения
Вы не можете добавлять вложения

Перейти:  
Для Мосгорсуда, Роскомнадзора и рекламодателей: mosgorsud-torrent[собачка]yandex.ru
 Вход
ppkBB3cker v.2 © 2008-2014 @ PPK
[ Time : 0.032s | 18 Queries | GZIP : Off ]

cron