img image001 image001 image001 image001 image001 image001 image001 image001 image001 image001 image001 image001 image001 image001 image001

Planets Sun Sun Sun
Статистика раздачи
Автор: Nickolas3434 | Размер: 587.43 МБ | Добавлен: 12 ноя 2017
Раздают: 10    Качают: 3
Скачать торрент
Скачать торрент
Описание торрента

СообщениеДобавлено: 12 ноя 2017 

Информация о фильме
Жанр: Документальный
Участники: Byron Rosales Romero, Juan J. Dominguez, Duane Miller | See full cast & crew »
Описание:
Документальный фильм "Банановая угроза" рассказывает о проблеме выращивания бананов, суть которой: главное – объемы урожая, а потом – здоровье и жизнь людей, работающих на банановых плантациях. Современный Никарагуа, восточные районы страны стали территорией, где ради прибылей, увеличения сбора популярного фрукта используются тонны химии. О вреде для здоровья хорошо известно, но крупные банановые корпорации не останавливаются перед бесконечной гонкой за прибылями. Примерно треть стоимости каждого банана – это затраты на пестициды. Для работников, занятых в банановом производстве, такие удобрения – источник медленной смерти. Они несут почечную недостаточность, рак, бесплодие. Известный адвокат Хуан Домингес, заработавший миллионы на делах по возмещению убытков, выплачиваемых производствами за травмирование персонала, начинает схватку с банановыми концернами Dole Fruit и Dow Chemicals. Дело такого масштаба, что стало самым громким в карьере Хуана Домингеса. Фильм запрещен к показу на Лос-Анджелесском фестивале. Банановая компания Dole Fruit подала иск. Как развивалась ситуация, снято на камеру...
Продолжительность: 02:27:24
Качество видео: SATRip
Перевод: Профессиональный многоголосый закадровый
Видео: AVC/H.264, 640х336, ~495 Kbps
Аудио: AAC, 2 ch, 64,0 Кбит/сек
Код:
Общее
Полное имя                               :  Банановая угроза. 1 часть.mp4
Формат                                   : MPEG-4
Профиль формата                          : Base Media
Идентификатор кодека                     : isom (isom/iso2/avc1/mp41)
Размер файла                             : 183 Мбайт
Продолжительность                        : 45 м. 19 с.
Режим общего битрейта                    : Переменный
Общий поток                              : 563 Кбит/сек
Видео
Идентификатор                            : 1
Формат                                   : AVC
Формат/Информация                        : Advanced Video Codec
Профиль формата                          : Baseline@L3
Параметр CABAC формата                   : Нет
Параметр ReFrames формата                : 8 кадров
Параметр GOP формата                     : M=1, N=50
Идентификатор кодека                     : avc1
Идентификатор кодека/Информация          : Advanced Video Coding
Продолжительность                        : 45 м. 19 с.
Битрейт                                  : 495 Кбит/сек
Ширина                                   : 640 пикселей
Высота                                   : 336 пикселей
Соотношение сторон                       : 1,905
Соотношение сторон в оригинале           : 1,882
Режим частоты кадров                     : Переменный
Частота кадров                           : 25,000 кадров/сек
Минимальная частота кадров               : 12,500 кадров/сек
Максимальная частота кадров              : 25,000 кадров/сек
Цветовое пространство                    : YUV
Субдискретизация насыщенности            : 4:2:0
Битовая глубина                          : 8 бит
Тип развёртки                            : Прогрессивная
Бит/(Пиксели*Кадры)                      : 0.092
Размер потока                            : 160 Мбайт (88%)
Библиотека кодирования                   : x264 core 142 r2455 021c0dc
Настройки программы                      : cabac=0 / ref=8 / deblock=1:-1:-1 / analyse=0x1:0x131 / me=umh / subme=9 / psy=1 / psy_rd=1.00:0.15 / mixed_ref=1 / me_range=16 / chroma_me=1 / trellis=2 / 8x8dct=0 / cqm=0 / deadzone=21,11 / fast_pskip=1 / chroma_qp_offset=-3 / threads=18 / lookahead_threads=1 / sliced_threads=0 / nr=0 / decimate=1 / interlaced=0 / bluray_compat=0 / constrained_intra=0 / bframes=0 / weightp=0 / keyint=250 / keyint_min=25 / scenecut=40 / intra_refresh=0 / rc_lookahead=60 / rc=crf / mbtree=1 / crf=17.0 / qcomp=0.60 / qpmin=0 / qpmax=69 / qpstep=4 / vbv_maxrate=500 / vbv_bufsize=500 / crf_max=0.0 / nal_hrd=none / filler=0 / ip_ratio=1.40 / aq=1:1.00
Аудио
Идентификатор                            : 2
Формат                                   : AAC
Формат/Информация                        : Advanced Audio Codec
Профиль формата                          : HE-AAC / LC
Идентификатор кодека                     : 40
Продолжительность                        : 45 м. 18 с.
Продолжительность оригинала              : 45 м. 19 с.
Вид битрейта                             : Переменный
Битрейт                                  : 64,0 Кбит/сек
Максимальный битрейт                     : 103 Кбит/сек
Каналы                                   : 2 канала
Расположение каналов                     : Front: L R
Частота                                  : 44,1 КГц / 22,05 КГц
Частота кадров                           : 21,533 кадра/сек (1024 spf)
Метод сжатия                             : С потерями
Размер потока                            : 20,7 Мбайт (11%)
Размер потока оригинала                  : 20,7 Мбайт (11%)
mdhd_Duration                            : 2718685
 

Скриншоты:

   Похожие торренты   Торрент   Размер 
В этой теме нет новых непрочитанных сообщений. Бананы / Bananas (1971) BDRip-AVC от Koenig | P, P2, A

0 | 0

2.9 ГБ

В этой теме нет новых непрочитанных сообщений. Тайны Чапман. Хохлатая угроза (Эфир от 10.06.2020) (Рен ТВ) [2020, документальный, SATRip]

1 | 0

705.08 МБ

В этой теме нет новых непрочитанных сообщений. Тайны Чапман. Четвероногая угроза (Эфир от 22.11.2019) (РЕН ТВ) [2019, документальный, позновательный, SATRip]

0 | 0

666.04 МБ

В этой теме нет новых непрочитанных сообщений. Засекреченные списки. Скрытая угроза! 7 настоящих хозяев Земли (Эфир от 16.09.2017) (Рен ТВ) [2017, документальный, SATRip]

2 | 0

1.19 ГБ

В этой теме нет новых непрочитанных сообщений. Банановая рыба / Banana fish (Уцуми Хироко) [1-8 из 24] [Anything Group] [RAW] [RUS(int)+JAP+SUB] [2018, приключения, детектив, драма, сёдзё, HDTVRip]

0 | 3

2.54 ГБ

В этой теме нет новых непрочитанных сообщений. Банановая рыба / Banana fish (Уцуми Хироко) [1-10 из 24] [Anything Group] [RAW] [RUS(int)+JAP+SUB] [2018, приключения, детектив, драма, сёдзё, HDTVRip]

0 | 0

3.19 ГБ

В этой теме нет новых непрочитанных сообщений. Банановая рыба / Banana fish (Уцуми Хироко) [1-12 из 24] [Anything Group] [RAW] [RUS(int)+JAP+SUB] [2018, приключения, детектив, драма, сёдзё, HDTVRip]2

1 | 1

3.76 ГБ




Вы не можете начинать темы
Вы не можете отвечать на сообщения
Вы не можете редактировать свои сообщения
Вы не можете удалять свои сообщения
Вы не можете добавлять вложения

Перейти:  
Контактная информация: rstracker[пёсик]yandex.ru
 Вход
ppkBB3cker v.2 © 2008-2014 @ PPK
[ Time : 0.024s | 18 Queries | GZIP : Off ]

cron