img image001 image001 image001 image001 image001 image001 image001 image001 image001 image001 image001 image001 image001 image001 image001

Planets Sun Sun Sun
Статистика раздачи
Автор: Nickolas3434 | Размер: 74.23 ГБ | Добавлен: 22 янв 2018
Раздают: 0    Качают: 0
Скачать торрент
Скачать торрент
Описание торрента

СообщениеДобавлено: 22 янв 2018 

Информация о фильме
Название: Мир с высоты птичьего полёта
Оригинальное название: Earthflight
Год выхода: 2011-2012
Жанр: Документальный, природа, птицы, животные, флора, фауна, видовой
Режиссер: Джон Даунер
О фильме:
Документальный сериал о том, какой предстаёт нашему взору Земля с высоты птичьего полёта, глазами самих птиц, в грандиозном природном калейдоскопе. Потрясающие виды пяти континентов, поданные в новом ракурсе в этом шести серийном фильме, благодаря которому можно присоединиться к стае лапландских гусей, журавлей, фламинго, пеликанов, орлов и прочей птичьей братии. Для создания фильма были использованы последние технологии воздушных съёмок, чтобы мы смогли в мельчайших деталях увидеть всю мощь природы.

Страна: Великобритания
Студия: John Downer Productions Ltd.
Продолжительность: 6 x 00:59:15
Перевод: Авторский (Юрий Сербин)
Файл
Кодек: MPEG-4 AVC
Качество: BDRemux 1080p
Видео: 1920х1080, 29,0 Мбит/с, 25 кадр/с
Звук: DTS-HD MA, 2 канала, 1152 Кбит/с
Полное имя : C:UsersDVideosМИР С ВЫСОТЫ ПТИЧЬЕГО ПОЛЁТА1. СЕВЕРНАЯ АМЕРИКА.mkv
Формат : Matroska
Версия формата : Version 4 / Version 2
Размер файла : 12,5 Гбайт
Продолжительность : 59 м. 15 с.
Режим общего битрейта : Переменный
Общий поток : 30,1 Мбит/сек
Дата кодирования : UTC 2018-01-20 08:46:53
Программа кодирования : mkvmerge v20.0.0 ('I Am The Sun') 64-bit
Библиотека кодирования : libebml v1.3.5 + libmatroska v1.4.8
Видео
Идентификатор : 1
Формат : AVC
Формат/Информация : Advanced Video Codec
Профиль формата : High@L4.1
Настройки формата : CABAC / 4 Ref Frames
Параметр CABAC формата : Да
Параметр RefFrames формата : 4 кадра
Идентификатор кодека : V_MPEG4/ISO/AVC
Продолжительность : 59 м. 15 с.
Вид битрейта : Переменный
Битрейт : 29,0 Мбит/сек
Максимальный битрейт : 34,0 Мбит/сек
Ширина : 1920 пикселей
Высота : 1080 пикселей
Соотношение сторон : 16:9
Режим частоты кадров : Переменный
Частота кадров : 50,000 кадров/сек
Частота кадров в оригинале : 25,000 кадров/сек
Стандарт вещания : PAL
Цветовое пространство : YUV
Субдискретизация насыщенности : 4:2:0
Битовая глубина : 8 бит
Тип развёртки : Чересстрочная
Метод сохранения типа развёртки : Раздельные поля
Порядок развёртки : Верхнее поле первое
Бит/(Пиксели*Кадры) : 0.279
Размер потока : 12,0 Гбайт (96%)
Default : Да
Forced : Нет
Цветовой диапазон : Limited
Основные цвета : BT.709
Характеристики трансфера : BT.709
Коэффициенты матрицы : BT.709
Аудио
Идентификатор : 2
Формат : DTS
Формат/Информация : Digital Theater Systems
Профиль формата : MA / Core
Идентификатор кодека : A_DTS
Продолжительность : 59 м. 15 с.
Вид битрейта : Переменный / Постоянный
Битрейт : 1152 Кбит/сек / 768 Кбит/сек
Каналы : 2 канала
Расположение каналов : Front: L R
Частота : 48,0 КГц
Частота кадров : 93,750 кадра/сек (512 SPF)
Битовая глубина : 16 бит
Метод сжатия : Без потерь / Lossy
Размер потока : 490 Мбайт (4%)
Заголовок : Юрий Сербин
Язык : Russian
Default : Да
Forced : Нет

   Похожие торренты   Торрент   Размер 
В этой теме нет новых непрочитанных сообщений. BBC: Мир с высоты птичьего полёта / Earthflight [01-06] (2011-2012) Blu-Ray 1080i | A

0 | 1

82.37 ГБ

В этой теме нет новых непрочитанных сообщений. Альпы с высоты птичьего полёта / Die Alpen: Unsere Berge von oben (2013) BDRemux 1080p | Sub

10 | 2

13.55 ГБ

В этой теме нет новых непрочитанных сообщений. Арабские Эмираты с высоты птичьего полёта / The Emirates from Above (2021) HDTV 1080i | P1

0 | 0

2.37 ГБ

В этой теме нет новых непрочитанных сообщений. National Geographic: Китай с высоты птичьего полета [S02] (2018) HDTV 1080i | P1

0 | 0

5.27 ГБ

В этой теме нет новых непрочитанных сообщений. National Geographic: Индия с высоты птичьего полёта / India From Above [01-02 из 02] (2020) HDTV 1080i | P1

0 | 0

4.65 ГБ

В этой теме нет новых непрочитанных сообщений. National Geographic: Китай с высоты птичьего полета / China From Above [S01] (2015) HDTV 1080i | P1

3 | 4

5.08 ГБ

В этой теме нет новых непрочитанных сообщений. National Geographic: Европа с высоты птичьего полета / Europe From Above [S02] (2020) HDTV 1080i | P1

0 | 0

15.29 ГБ




Вы не можете начинать темы
Вы не можете отвечать на сообщения
Вы не можете редактировать свои сообщения
Вы не можете удалять свои сообщения
Вы не можете добавлять вложения

Перейти:  
Контактная информация: rstracker[пёсик]yandex.ru
 Вход
ppkBB3cker v.2 © 2008-2014 @ PPK
[ Time : 0.028s | 20 Queries | GZIP : Off ]

cron