img image001 image001 image001 image001 image001 image001 image001 image001 image001 image001 image001 image001 image001 image001 image001 image001

Planets Sun Sun Sun
Статистика раздачи
Автор: Nickolas3434 | Размер: 3.19 ГБ | Добавлен: 28 янв 2018
Раздают: 0    Качают: 0
Скачать торрент
Скачать торрент
Описание торрента

СообщениеДобавлено: 28 янв 2018 

Информация о фильме
Название: АльфаГо
Оригинальное название: AlphaGo
Год выхода: 2017
Жанр: документальный
Режиссер: Грего Кохс
В ролях: Иоаннис Антоноглоу, Лукас Бэйкер, Ник Бострём, Ю Чан-хъюк, Нам Чхи-хён, Хъе-ён Чхо, Чжон Даугман, Крис Гарлок, Тор Грэпэль, Дэмис Хассабис, Джон Холмс, Аджа Хуан, Фан Хэй
О фильме:
С конфигурацией фишек (камней) большей, чем атомов во вселенной, китайская игра "Го" долгое время считалась большой проблемой для искусственного интеллекта. 9 марта 2016 года два мира, Го и искусственного интеллекта, столкнулись в Южной Корее в необычайном соревновании, придуманном Google DeepMind Challenge. Сотни людей во всем мире наблюдали за тем, как легендарный мастер Го впервые принимает участие в этом, казалось бы фантастическом, соревновании. Режиссер Грег Кохс (номинант на "Оскар) в своем повествовании переносит нас из залов Кембриджа, на задворки Бордо, а затем - в Лондон и из Лондона - в Сеул. И, когда начинает разворачиваться драма, вопросов возникает еще больше: Что может противопоставить искусственный интеллект 3000-летней игре? Чему он может научить человечество? Сможет ли человек противостоять машине?

Страна: США, Южная Корея
Продолжительность: 01:30:28
Перевод: Любительский, многоголосый, закадровый (перевод: EverG, при участии Александра Динерштейна, семикратного чемпиона Европы по игре Го, озвучка: студия "Колобок", закадровый текст читали: DeadSno, Den904, Berserk)
Файл
Кодек: V_MPEG4/ISO/AVC
Качество: WEBRip 1080p
Видео: 1920x1080 (16:9), 23.976 FPS, 4870 kb/s
Звук: AC-3, 48.0 kHz, 2ch, 192 kb/s
Субтитры: нет
General
Unique ID : 225076377887352586742871954840117713561 (0xA954223343ED0BB28DE96DBAE77E1A99)
Complete name : АльфаГо [Студия Колобок].mkv
Format : Matroska
Format version : Version 4 / Version 2
File size : 3.19 GiB
Duration : 1 h 30 min
Overall bit rate mode : Variable
Overall bit rate : 5 048 kb/s
Encoded date : UTC 2018-01-25 16:03:36 / UTC 2017-12-07 00:51:43
Writing application : mkvmerge v6.2.0 ('Promised Land') built on Apr 28 2013 12:22:01
Writing library : libebml v1.3.0 + libmatroska v1.4.0 / Lavf58.0.0
Video
ID : 1
Format : AVC
Format/Info : Advanced Video Codec
Format profile : Main@L4
Format settings, CABAC : Yes
Format settings, RefFrames : 3 frames
Format settings, GOP : M=3, N=48
Codec ID : V_MPEG4/ISO/AVC
Duration : 1 h 30 min
Bit rate mode : Variable
Bit rate : 4 870 kb/s
Maximum bit rate : 7 305 kb/s
Width : 1 920 pixels
Height : 1 080 pixels
Display aspect ratio : 16:9
Frame rate mode : Constant
Frame rate : 23.976 (24000/1001) FPS
Color space : YUV
Chroma subsampling : 4:2:0
Bit depth : 8 bits
Scan type : Progressive
Bits/(Pixel*Frame) : 0.098
Stream size : 3.01 GiB (94%)
Writing library : x264 core 148 r2714 2daf636
Encoding settings : cabac=1 / ref=3 / deblock=1:0:0 / analyse=0x1:0x111 / me=umh / subme=10 / psy=1 / psy_rd=1.00:0.00 / mixed_ref=1 / me_range=24 / chroma_me=1 / trellis=2 / 8x8dct=0 / cqm=0 / deadzone=21,11 / fast_pskip=1 / chroma_qp_offset=-2 / threads=8 / lookahead_threads=1 / sliced_threads=0 / nr=0 / decimate=1 / interlaced=0 / bluray_compat=0 / stitchable=1 / constrained_intra=0 / bframes=2 / b_pyramid=0 / b_adapt=2 / b_bias=0 / direct=3 / weightb=1 / open_gop=0 / weightp=2 / keyint=48 / keyint_min=25 / scenecut=0 / intra_refresh=0 / rc_lookahead=48 / rc=2pass / mbtree=1 / bitrate=4870 / ratetol=1.0 / qcomp=0.50 / qpmin=6 / qpmax=51 / qpstep=4 / cplxblur=20.0 / qblur=0.5 / vbv_maxrate=7305 / vbv_bufsize=9740 / nal_hrd=vbr / filler=0 / ip_ratio=1.40 / aq=1:1.00
Default : Yes
Forced : No
Statistics Tags Issue : mkvmerge v11.0.0 ('Alive') 64bit 2018-01-01 22:07:23 / mkvmerge v6.2.0 ('Promised Land') built on Apr 28 2013 12:22:01 2018-01-25 16:03:36 / UTC 2017-12-07 00:51:43
FromStats_BitRate : 4854177
FromStats_Duration : 01:30:28.423000000
FromStats_FrameCount : 130152
FromStats_StreamSize : 3293815769
Audio
ID : 2
Format : AC-3
Format/Info : Audio Coding 3
Format settings, Endianness : Big
Codec ID : A_AC3
Duration : 1 h 30 min
Bit rate mode : Constant
Bit rate : 192 kb/s
Channel(s) : 2 channels
Channel positions : Front: L R
Sampling rate : 48.0 kHz
Frame rate : 31.250 FPS (1536 SPF)
Bit depth : 16 bits
Compression mode : Lossy
Stream size : 124 MiB (4%)
Service kind : Complete Main
Default : Yes
Forced : No

Релиз от:



   Похожие торренты   Торрент   Размер 
В этой теме нет новых непрочитанных сообщений. Дядя Вова, мы с тобой! [3 клипа] (2017) WEBRip 720p, WEBRip 1080p

0 | 0

147.02 МБ

В этой теме нет новых непрочитанных сообщений. Автоспорт - 4х4. Сборник видео офф роуда и трофи рейдов. Отчет за Декабрь (2017) WEBRip 720p, WEBRip 1080p

0 | 0

216.83 ГБ

В этой теме нет новых непрочитанных сообщений. Автоспорт. 4х4. Сборник видео офф роуда и трофи рейдов. Отчет за Январь - Октябрь (2017) WEBRip 720p, WEBRip 1080p

0 | 0

339.36 ГБ

В этой теме нет новых непрочитанных сообщений. Мгла / The Mist [01x01-03 из 10] (2017) WEB-DLRip 1080p, WEBRip 1080p | IdeaFilm

102 | 36

5.03 ГБ

В этой теме нет новых непрочитанных сообщений. Мгла / The Mist [01x01-04 из 10] (2017) WEB-DL 1080p, WEBRip 1080p | Alternative Production4

16 | 9

5.25 ГБ

В этой теме нет новых непрочитанных сообщений. Мгла / The Mist [S01] (2017) WEB-DL 1080p, WEBRip 1080p | Alternative Production

9 | 10

18.35 ГБ

В этой теме нет новых непрочитанных сообщений. Звезда на Звезде. Маргарита Симоньян (01.11.2017) (2017) WEBRip 1080p

0 | 0

698.14 МБ




Вы не можете начинать темы
Вы не можете отвечать на сообщения
Вы не можете редактировать свои сообщения
Вы не можете удалять свои сообщения
Вы не можете добавлять вложения

Перейти:  
 Вход
ppkBB3cker v.2 © 2008-2014 @ PPK
[ Time : 0.023s | 17 Queries | GZIP : Off ]

cron