img image001 image001 image001 image001 image001 image001 image001 image001 image001 image001 image001 image001 image001 image001 image001 image001

Planets Sun Sun Sun
Статистика раздачи
Автор: Nickolas3434 | Размер: 30.79 ГБ | Добавлен: 28 янв 2018
Раздают: 15    Качают: 7
Скачать торрент
Скачать торрент
Описание торрента

СообщениеДобавлено: 28 янв 2018 

Информация о фильме
Название: BBC: Йеллоустоун. Битва за жизнь
Оригинальное: Yellowstone. Battle for life
Год выхода: 2009
Жанр: Документальный, природа, животные, птицы, флора, фауна, видовой
Режиссер: Эндрю Мюррей
О фильме:
Йеллоустоун — необычное место дикой природы. Он считается старейшим национальным парком США и представляет собой затерянный мир великих равнин, зеленых лугов и бесконечных лесов, защищенных со всех сторон величественными горами. Уникальное творение природы в котором обитают американские бизоны, медведи гризли, лоси и волки, ведущие непрерывную борьбу за выживание в прекрасном и в то-же время суровом уголке нашей планеты. Фильм состоит из 3-х частей: Зима, лето и осень.

Страна: Великобритания
Студия: BBC, Animal Planet, CO-Production
Продолжительность: 3 x 00:49:00
Перевод: Профессиональный (одноголосый закадровый)
Файл
Кодек: MPEG-4 AVC
Качество: BDRemux 1080i
Видео: 1920х1080, 27,5 Мбит/с, 30 кадра/с
Звук: DTS-HD MA, 6 каналов, 2150 Кбит/с
Общее
Уникальный идентификатор : 242596177353798972245185652958986204307 (0xB682530120AA5FD0E802A7B070137493)
Полное имя : C:UsersDVideosЙЕЛЛОУСТОУН1. ЗИМА.mkv
Формат : Matroska
Версия формата : Version 4 / Version 2
Размер файла : 10,2 Гбайт
Продолжительность : 49 м. 14 с.
Режим общего битрейта : Переменный
Общий поток : 29,6 Мбит/сек
Дата кодирования : UTC 2018-01-26 14:25:48
Программа кодирования : mkvmerge v20.0.0 ('I Am The Sun') 64-bit
Библиотека кодирования : libebml v1.3.5 + libmatroska v1.4.8
Видео
Идентификатор : 1
Формат : AVC
Формат/Информация : Advanced Video Codec
Профиль формата : High@L4.1
Настройки формата : CABAC / 4 Ref Frames
Параметр CABAC формата : Да
Параметр RefFrames формата : 4 кадра
Параметр GOP формата : M=3, N=24
Идентификатор кодека : V_MPEG4/ISO/AVC
Продолжительность : 49 м. 11 с.
Вид битрейта : Переменный
Битрейт : 27,5 Мбит/сек
Максимальный битрейт : 35,0 Мбит/сек
Ширина : 1920 пикселей
Высота : 1080 пикселей
Соотношение сторон : 16:9
Режим частоты кадров : Переменный
Частота кадров : 59,940 (60000/1001) кадров/сек
Частота кадров в оригинале : 29,970 (30000/1001) кадров/сек
Стандарт вещания : NTSC
Цветовое пространство : YUV
Субдискретизация насыщенности : 4:2:0
Битовая глубина : 8 бит
Тип развёртки : Чересстрочная
Метод сохранения типа развёртки : Раздельные поля
Порядок развёртки : Верхнее поле первое
Бит/(Пиксели*Кадры) : 0.221
Размер потока : 9,45 Гбайт (93%)
Default : Да
Forced : Нет
Цветовой диапазон : Limited
Основные цвета : BT.709
Характеристики трансфера : BT.709
Коэффициенты матрицы : BT.709
Аудио
Идентификатор : 2
Формат : DTS
Формат/Информация : Digital Theater Systems
Профиль формата : MA / Core
Идентификатор кодека : A_DTS
Продолжительность : 49 м. 14 с.
Вид битрейта : Переменный / Постоянный
Битрейт : 2150 Кбит/сек / 1509 Кбит/сек
Каналы : 6 каналов
Расположение каналов : Front: L C R, Side: L R, LFE
Частота : 48,0 КГц
Частота кадров : 93,750 кадра/сек (512 SPF)
Битовая глубина : 16 бит
Метод сжатия : Без потерь / Lossy
Размер потока : 757 Мбайт (7%)
Язык : Russian
Default : Да
Forced : Нет



   Похожие торренты   Торрент   Размер 
В этой теме нет новых непрочитанных сообщений. BBC. Йеллоустоун: Борьба за жизнь / Yellowstone: Battle For Life (2009) BDRip 1080i | P1

4 | 4

17.39 ГБ

В этой теме нет новых непрочитанных сообщений. BBC: Йеллоустоун - Борьба за жизнь / BBC: Yellowstone - Battle For Life (2009) BDRip 720p

7 | 3

3.31 ГБ

В этой теме нет новых непрочитанных сообщений. BBC: Йеллоустоун: Заметки о дикой природе / Yellowstone (2009) DVDRip от Generalfilm

1 | 9

1.37 ГБ

В этой теме нет новых непрочитанных сообщений. Дикий Йеллоустоун / Wild Yellowstone [01-03 из 03] HDTVRip от Generalfilm

13 | 1

1.61 ГБ

В этой теме нет новых непрочитанных сообщений. NG: Национальные парки Америки. Йеллоустоун / America's National Parks. Yellowstone (2015) HDTVRip от Kaztorrents | D

30 | 8

627.59 МБ

В этой теме нет новых непрочитанных сообщений. NG: Национальные парки Америки. Йеллоустоун / America's National Parks. Yellowstone (2015) HDTVRip-AVC от Kaztorrents | D

82 | 9

690.61 МБ

В этой теме нет новых непрочитанных сообщений. NG: Национальные парки Америки. Йеллоустоун / America's National Parks. Yellowstone (2015) HDTVRip 720p | D

9 | 0

1.53 ГБ




Вы не можете начинать темы
Вы не можете отвечать на сообщения
Вы не можете редактировать свои сообщения
Вы не можете удалять свои сообщения
Вы не можете добавлять вложения

Перейти:  
 Вход
ppkBB3cker v.2 © 2008-2014 @ PPK
[ Time : 0.028s | 16 Queries | GZIP : Off ]

cron