img image001 image001 image001 image001 image001 image001 image001 image001 image001 image001 image001 image001 image001 image001 image001 image001

Planets Sun Sun Sun
Статистика раздачи
Автор: PriZraK | Размер: 1.27 ГБ | Добавлен: 12 фев 2018
Раздают: 3    Качают: 0
Скачать торрент
Скачать торрент
Описание торрента

СообщениеДобавлено: 12 фев 2018 

Дети мечты / Dream Babies

Перевод: Профессиональный (двухголосый), cубтитры: отсутствуют
Формат: DVB, MPEG-TS, MPEG2, MP2
Страна: Франция, Arte France - Scientfilms
Режиссер: Тьерри Роберт
Жанр: документальный, научно-познавательный
Продолжительность: 00:52:17
Год выпуска: 2017

Описание: Хотите спроектировать пол своего ребенка? Его цвет глаз? Быть уверенным в том, что у него не будет генетических заболеваний? Выбрать идеальный сперматозоид сейчас очень просто. Репродуктивная медицина шагнула далеко вперед, и то, что задумывалось как спасение от бесплодия и генетических заболеваний, превратилось в очень прибыльный бизнес. Дети на заказ - это больше не миф.

Рейтинг MPAA -

Видео: 720х576@1024x576 (16:9), 25 fps, MPEG Video 2 (Main@Main), ~3109 kbps avg, 0.300 bit/pixel
Аудио: 48 kHz, MPEG Layer 2, 2 ch, ~192.00 kbps avg

Доп. информация: переведено компанией "Видеофильм ТВ"
размер кадра - анаморфный - (1024x576)

Автор рипа и постера: skorpionN


Код:
Код:
Общее
Идентификатор : 1 (0x1)
Полное имя : D:\Dream Babies.ts
Формат : MPEG-TS
Размер файла : 1,27 Гбайт
Продолжительность : 52 м.
Режим общего битрейта : Переменный
Общий поток : 3474 Кбит/сек

Видео
Идентификатор : 4113 (0x1011)
Идентификатор меню : 1 (0x1)
Формат : MPEG Video
Версия формата : Version 2
Профиль формата : Main@Main
Параметр BVOP формата : Да
Параметр матрицы формата : Выборочная
Параметр GOP формата : M=3, N=15
Идентификатор кодека : 2
Продолжительность : 52 м.
Вид битрейта : Переменный
Битрейт : 3109 Кбит/сек
Максимальный битрейт : 9800 Кбит/сек
Ширина : 720 пикселей
Высота : 576 пикселей
Соотношение сторон : 16:9
Частота кадров : 25,000 кадров/сек
Стандарт вещания : PAL
Цветовое пространство : YUV
Субдискретизация насыщенности : 4:2:0
Битовая глубина : 8 бит
Тип развёртки : Прогрессивная
Порядок развёртки : Нижнее поле первое
Метод сжатия : С потерями
Бит/(Пиксели*Кадры) : 0.300
Временной код первого кадра : 00:00:00:00
Оригинал временного кода : Group of pictures header
GOP, открыто/закрыто : Открыто
GOP, открыто/закрыто на первом кадре : Закрыто
Размер потока : 1,14 Гбайт (89%)

Аудио
Идентификатор : 4352 (0x1100)
Идентификатор меню : 1 (0x1)
Формат : MPEG Audio
Версия формата : Version 1
Профиль формата : Layer 2
Идентификатор кодека : 3
Продолжительность : 52 м.
Вид битрейта : Постоянный
Битрейт : 192 Кбит/сек
Каналы : 2 канала
Частота : 48,0 КГц
Метод сжатия : С потерями
Размер потока : 71,8 Мбайт (6%)
Язык : Russian














   Похожие торренты   Торрент   Размер 
В этой теме нет новых непрочитанных сообщений. Легенды Крыма (01-47 выпуски из ?) [2015-2017, документальный, научно-познавательный, DVB]

0 | 3

25.71 ГБ

В этой теме нет новых непрочитанных сообщений. Потомки (1-5 серии из ?) (ООО ЭсКаСи) [2017, документальный, исторический, научно-познавательный, IPTVRip]

2 | 0

1.7 ГБ

В этой теме нет новых непрочитанных сообщений. Потомки (1-16 серии из ?) (ООО ЭсКаСи) [2017, документальный, исторический, научно-познавательный, IPTVRip]

4 | 2

5.49 ГБ

В этой теме нет новых непрочитанных сообщений. Потомки (1-10 серии из ?) (ООО ЭсКаСи) [2017, документальный, исторический, научно-познавательный, IPTVRip]

1 | 2

3.43 ГБ

В этой теме нет новых непрочитанных сообщений. Потомки (Культурная революция) (ООО ЭсКаСи) [2017, документальный, исторический, научно-познавательный, IPTVRip]

4 | 1

340.44 МБ

В этой теме нет новых непрочитанных сообщений. Потомки (Портреты революции) (1-6 серии из ?) (ООО ЭсКаСи) [2017, документальный, исторический, научно-познавательный, IPTVRip]

4 | 0

2.08 ГБ

В этой теме нет новых непрочитанных сообщений. Вопрос науки (Марс:летим или не летим?) [2017, документальный, научно-познавательный, исследование, WEB-DLRip]

4 | 0

338.01 МБ




Вы не можете начинать темы
Вы не можете отвечать на сообщения
Вы не можете редактировать свои сообщения
Вы не можете удалять свои сообщения
Вы не можете добавлять вложения

Перейти:  
 Вход
ppkBB3cker v.2 © 2008-2014 @ PPK
[ Time : 1.408s | 16 Queries | GZIP : Off ]

cron