img image001 image001 image001 image001 image001 image001 image001 image001 image001 image001 image001 image001 image001 image001 image001 image001

Planets Sun Sun Sun
Статистика раздачи
Автор: PriZraK | Размер: 4.16 ГБ | Добавлен: 12 фев 2018
Раздают: 8    Качают: 0
Скачать торрент
Скачать торрент
Описание торрента

СообщениеДобавлено: 12 фев 2018 

Числа. 5 чисел, которые изменили мир (5 серий из 5) / Numbers. Five Numbers That Changed the World

Перевод: Профессиональный (одноголосый), cубтитры: отсутствуют
Формат: DVB, MPEG-TS, MPEG2, MP2
Страна: Южная Корея, Educational Broadcasting System (EBS)
Режиссер: Чу Док Дам
Жанр: документальный, научно-познавательный, история
Продолжительность: 5 x ~00:50:12
Год выпуска: 2012

Описание: До неба слишком далеко, а Земля слишком велика, что бы ее измерить. Откуда же взялись числа?

Видео: 720х576@1024x576 (16:9), 25 fps, MPEG Video 2 (Main@Main), ~1980 kbps avg, 0.191 bit/pixel
Аудио: 48 kHz, MPEG Layer 2, 2 ch, ~192.00 kbps avg

Доп. информация: Размер кадра - анаморфный - (1024x576)

Рип и постер от: skorpionN
01. Число небес
Вычисление квадратуры круга было самой популярной геометрической проблемой древности. Нужно было создать круг и квадрат одинаковой площади, используя лишь линейку и циркуль. Линейка и циркуль отражают представление греков о геометрии. Круг и квадрат символизируют небо и землю.

02. Бесконечность. Лестница Иакова
Один из его аргументов был тот, что движение невозможно. Притронувшись к бесконечности, они опустили руки, сказав: "Это бессмысленно!" Потому что он спорил о вещах, которые казались смешными. Несмотря на то, что его постоянно критиковали, он сумел противостоять этим нападкам.

03. Число свободы
Жизнь - это очень сложный процесс. И мир тоже чертовски непрост. Он раздвинул рамки и смог показать, что некоторые уравнения не имеют общего решения. Это неизвестное количество неизвестных предметов. Так что уравнение похоже на утверждение "что-то, что-то и что-то есть нечто иное". Это лишь условное обозначение. Название для того, чего мы не знаем.

04. Замысел богов
Представьте, что два математика используют разные числовые системы. Арабские цифры, если знать, как ими пользоваться, более эффективны, чем нумерация старого стиля. Чтобы производить вычисления римскими цифрами, нужно было делать перевод. Торговцы узнали об арабских цифрах, с которыми можно было производить вычисления на бумаге, и, раз за этим стояли деньги, распространение арабских цифр было сложно остановить. И за несколько веков они полностью вытеснили римскую нумерацию.

05. Воображаемые числа. Числа небес
В Греции встретились многие культуры. Они контактировали с различными цивилизациями и находились в центре культурного обмена. Греки были исследователями и искателями приключений. Греки создали философию и математику. Греки всегда искали точность и истину. "Нам нужна математика. Нам никуда не продвинуться, не изучив основы того, что правит миром.

Код:
Код:
Общее
Идентификатор : 1 (0x1)
Полное имя : D:\Numbers_Five Numbers That Changed the World\01_Число небес.ts
Формат : MPEG-TS
Размер файла : 821 Мбайт
Продолжительность : 50 м. 11 с.
Режим общего битрейта : Переменный
Общий поток : 2287 Кбит/сек

Видео
Идентификатор : 206 (0xCE)
Идентификатор меню : 1806 (0x70E)
Формат : MPEG Video
Версия формата : Version 2
Профиль формата : Main@Main
Настройки формата : CustomMatrix / BVOP
Параметр BVOP формата : Да
Параметр матрицы формата : Выборочная
Параметр GOP формата : M=3, N=15
Структура изображения : Frame
Идентификатор кодека : 2
Продолжительность : 50 м. 11 с.
Вид битрейта : Переменный
Битрейт : 1980 Кбит/сек
Максимальный битрейт : 9800 Кбит/сек
Ширина : 720 пикселей
Высота : 576 пикселей
Соотношение сторон : 16:9
Частота кадров : 25,000 кадров/сек
Стандарт вещания : PAL
Цветовое пространство : YUV
Субдискретизация насыщенности : 4:2:0
Битовая глубина : 8 бит
Тип развёртки : Чересстрочная
Порядок развёртки : Верхнее поле первое
Метод сжатия : С потерями
Бит/(Пиксели*Кадры) : 0.191
Временной код первого кадра : 00:00:00:00
Оригинал временного кода : Group of pictures header
GOP, открыто/закрыто : Открыто
GOP, открыто/закрыто на первом кадре : Закрыто
Размер потока : 711 Мбайт (87%)

Аудио
Идентификатор : 306 (0x132)
Идентификатор меню : 1806 (0x70E)
Формат : MPEG Audio
Версия формата : Version 1
Профиль формата : Layer 2
Идентификатор кодека : 3
Продолжительность : 50 м. 11 с.
Вид битрейта : Постоянный
Битрейт : 192 Кбит/сек
Каналы : 2 канала
Частота : 48,0 КГц
Частота кадров : 41,667 кадра/сек (1152 SPF)
Метод сжатия : С потерями
Размер потока : 68,9 Мбайт (8%)
Язык : Russian
















   Похожие торренты   Торрент   Размер 
В этой теме нет новых непрочитанных сообщений. Великий замысел по Стивену Хокингу (1-3 серии из 3) / Discovery. Stephen Hawking's Grand Design (Дэн Клифтон) [2012, документальный, научно-познавательный, альтернативная история, HDRip] VO

8 | 0

1.49 ГБ

В этой теме нет новых непрочитанных сообщений. Загадки русской истории (1-8 серии из 8) (Дмитрий Лукашов) [2006, документальный, научно-познавательный, история, DVB-AVC]

6 | 0

3.66 ГБ

В этой теме нет новых непрочитанных сообщений. Мир без микробов / Un monde sans microbe (A world without microbes) / (Марианна Крамер) [2016, документальный, научно-познавательный, DVB] DVO

0 | 0

927.22 МБ

В этой теме нет новых непрочитанных сообщений. Сокровища забытых фараонов / L'Egypte, une passion francaise (Фредерик Вильнер) [2011, документальный, научно-познавательный, история, SATRip] DVO

10 | 0

1.37 ГБ

В этой теме нет новых непрочитанных сообщений. Викторианская ферма (1 сезон, 1-6 серии из 6) / BBC. Victorian Farm (Стюарт Эллиотт) [2009, документальный, научно-познавательный, история, культура, реконструкция, DVDRip] DUB

0 | 2

4.37 ГБ

В этой теме нет новых непрочитанных сообщений. Секреты устройства античных городов (1-2 серии из 2) / Building the Ancient City (Пауль Элстон) [2015, документальный, научно-познавательный, история, LowHDRip] DUB

8 | 0

1.64 ГБ

В этой теме нет новых непрочитанных сообщений. Глиняная (Призрачная) армия Китая / National Geographic. China's Ghost Army (Стивен Тэллей) [2010, документальный, научно-познавательный, история, HDTVRip] DUB

4 | 0

677.33 МБ




Вы не можете начинать темы
Вы не можете отвечать на сообщения
Вы не можете редактировать свои сообщения
Вы не можете удалять свои сообщения
Вы не можете добавлять вложения

Перейти:  
 Вход
ppkBB3cker v.2 © 2008-2014 @ PPK
[ Time : 0.041s | 16 Queries | GZIP : Off ]

cron