img image001 image001 image001 image001 image001 image001 image001 image001 image001 image001 image001 image001 image001 image001 image001 image001

Planets Sun Sun Sun
Статистика раздачи
Автор: Снежана | Размер: 776.73 МБ | Добавлен: 12 июн 2018
Раздают: 8    Качают: 0
Скачать торрент
Скачать торрент
Описание торрента

СообщениеДобавлено: 12 июн 2018 

Земля из космоса / Earth From Space

Перевод: Профессиональный (одноголосый), cубтитры: отсутствуют
Формат: DVB, MPEG-TS, H.264, MP2
Страна: США, National Geographic
Режиссер: Иэн Риддик
Жанр: документальный, научный-популярный, исследования, космос
Продолжительность: 00:44:56
Год выпуска: 2013

Описание: Земля из космоса приглашает вас на эпические поиски обнаружения невидимых сил и процессов, которые поддерживают жизнь на нашей планете и впервые вы увидите их в действии в их естественной среде в ярких деталях. Эти поистине уникальные изображения будут изучать глубочайшие тайны существования, вызвав глубокие вопросы и сложные старые предположения о том, как работает система Земли.

Рейтинг на IMDB:

Видео: 720x576@1046x576 (16:9) AVC (H.264) , ~2103kbps, 25fps, 0.203 bit/pixel
Аудио: 48 kHz, MPEG Layer 2, 2 ch, ~192.00 kbps avg Велес

Complete name : F:\Наладки\Земля из космоса.ts
Format : MPEG-TS
File size : 777 MiB
Duration : 44 min 56 s
Overall bit rate mode : Variable
Overall bit rate : 2 417 kb/s

Video
ID : 501 (0x1F5)
Menu ID : 23100 (0x5A3C)
Format : AVC
Format/Info : Advanced Video Codec
Format profile : Main@L3
Format settings : CABAC / 3 Ref Frames
Format settings, CABAC : Yes
Format settings, ReFrames : 3 frames
Codec ID : 27
Duration : 44 min 56 s
Bit rate : 2 103 kb/s
Width : 720 pixels
Height : 576 pixels
Display aspect ratio : 16:9
Frame rate : 25.000 FPS
Standard : Component
Color space : YUV
Chroma subsampling : 4:2:0
Bit depth : 8 bits
Scan type : Interlaced
Scan type, store method : Separated fields
Scan order : Top Field First
Bits/(Pixel*Frame) : 0.203
Stream size : 676 MiB (87%)
Color range : Limited
Color primaries : BT.601 PAL
Transfer characteristics : BT.470 System B, BT.470 System G
Matrix coefficients : BT.470 System B, BT.470 System G

Audio
ID : 502 (0x1F6)
Menu ID : 23100 (0x5A3C)
Format : MPEG Audio
Format version : Version 1
Format profile : Layer 2
Codec ID : 3
Duration : 44 min 56 s
Bit rate mode : Constant
Bit rate : 192 kb/s
Channel(s) : 2 channels
Sampling rate : 48.0 kHz
Frame rate : 41.667 FPS (1152 SPF)
Compression mode : Lossy
Delay relative to video : -40 ms
Stream size : 61.7 MiB (8%)
Language : Russian







   Похожие торренты   Торрент   Размер 
В этой теме нет новых непрочитанных сообщений. Земля из космоса / Earth from space (2013) HDTVRip от -=HD-NET=-

141 | 33

1.45 ГБ

В этой теме нет новых непрочитанных сообщений. Земля через тысячу лет / Earth in 1000 Years (Томас Лукас) [2013, документальный, научно-популярный, DVB] VO

13 | 0

781.16 МБ

В этой теме нет новых непрочитанных сообщений. Тайны Тутанхамона / Ultimate Tutankhamun (Шон Смит) [2013, документальный, научно-популярный, история, исследования, SATRip-AVC] VO

3 | 0

683.05 МБ

В этой теме нет новых непрочитанных сообщений. Рождение человечества. Битва за планету Земля (1-2 серии из 2) / Planet of the Apemen: Battle for Earth (Тони Митчел) [2011, документальный, постановочный, научно-популярный, SATRip] DVO

0 | 0

1.34 ГБ

В этой теме нет новых непрочитанных сообщений. Загадки планеты Земля (3 сезон, 1-18 серии из ?) / Discovery. What on Earth? (Даниэль Эдвардс, Джон Наттер, Майк Вафер) [2016, документальный, наука, космос, история, HDTVRip] VO

13 | 4

9.6 ГБ

В этой теме нет новых непрочитанных сообщений. Загадки планеты Земля (3 сезон, 1-9 серии из ?) / Discovery. What on Earth? (Даниэль Эдвардс, Джон Наттер, Майк Вафер) [2016, документальный, наука, космос, история, HDTVRip] VO

1 | 0

4.8 ГБ

В этой теме нет новых непрочитанных сообщений. Загадки планеты Земля (3 сезон, 1-15 серии из ?) / Discovery. What on Earth? (Даниэль Эдвардс, Джон Наттер, Майк Вафер) [2016, документальный, наука, космос, история, HDTVRip] VO

8 | 4

8 ГБ




Вы не можете начинать темы
Вы не можете отвечать на сообщения
Вы не можете редактировать свои сообщения
Вы не можете удалять свои сообщения
Вы не можете добавлять вложения

Перейти:  
 Вход
ppkBB3cker v.2 © 2008-2014 @ PPK
[ Time : 0.021s | 18 Queries | GZIP : Off ]

cron