img image001 image001 image001 image001 image001 image001 image001 image001 image001 image001 image001 image001 image001 image001 image001 image001

Planets Sun Sun Sun
Статистика раздачи
Автор: Снежана | Размер: 5.47 ГБ | Добавлен: 26 июн 2018
Раздают: 7    Качают: 2
Скачать торрент
Скачать торрент
Описание торрента

СообщениеДобавлено: 26 июн 2018 

Название: Могучие Реки
Оригинальное название: Jeremy Wade's Mighty Rivers
Год выпуска: 2018
Жанр: Документальный
Выпущено: США
Режиссер: Гарри Маршал, Лиза Босак Лукас
В ролях: Джереми Уэйд
Описание сериала:
В этом новом шестисерийном цикле Джереми собирается исследовать некоторые из самых больших водных путей планеты, сверху донизу. С таким же захватывающим стилем, который сделал его мировой звездой телевидения, он будет проверять пульс Амазонки, Ганга, Янцзы, Миссисипи, Дуная и Замбези. Неужели наши величайшие реки действительно прошли мимо точки невозврата, и что же нужно, чтобы спасти их от гибели?


Продолжительность: ~ ~ 00:45:00
Перевод: Любительский двухголосый (RusFilm)
Реклама: Присутствует
Файл
Формат: MKV
Качество: HDTVRip (720p)
Видео: MPEG-4 AVC, ~ 2500 Кбит/с, 1280x720
Аудио: 48 kHz, AC3 Dolby Digital, 2/0 (L,R) ch, ~192 kbps rus
Format : Matroska
Format version : Version 4 / Version 2
File size : 1.10 GiB
Duration : 42 min 37 s
Overall bit rate : 3 685 kb/s
Encoded date : UTC 2018-05-26 20:27:52
Writing application : mkvmerge v21.0.0 ('Tardigrades Will Inherit The Earth') 64-bit
Writing library : libebml v1.3.5 + libmatroska v1.4.8
Video
ID : 1
Format : AVC
Format/Info : Advanced Video Codec
Format profile : High@L3.1
Format settings : CABAC / 1 Ref Frames
Format settings, CABAC : Yes
Format settings, ReFrames : 1 frame
Format settings, GOP : M=1, N=30
Codec ID : V_MPEG4/ISO/AVC
Duration : 42 min 37 s
Bit rate : 3 493 kb/s
Width : 1 280 pixels
Height : 720 pixels
Display aspect ratio : 16:9
Frame rate mode : Constant
Frame rate : 23.976 (24000/1001) FPS
Color space : YUV
Chroma subsampling : 4:2:0
Bit depth : 8 bits
Scan type : Progressive
Bits/(Pixel*Frame) : 0.158
Stream size : 1.04 GiB (95%)
Language : English
Default : Yes
Forced : No
Audio
ID : 2
Format : AAC
Format/Info : Advanced Audio Codec
Format profile : LC
Codec ID : A_AAC-2
Duration : 42 min 37 s
Bit rate : 192 kb/s
Channel(s) : 2 channels
Channel positions : Front: L R
Sampling rate : 48.0 kHz
Frame rate : 46.875 FPS (1024 SPF)
Compression mode : Lossy
Stream size : 57.8 MiB (5%)
Language : English
Default : Yes
Forced : No
Внимание! Раздача ведётся путём добавления новых серий; при каждом добавлении создаётся новый торрент. Чтобы начать докачку новой серии, пользователям необходимо сделать следующее:
(1) остановить скачивание,
(2) удалить старый торрент у себя из клиента (старые серии удалять не надо),
(3) скачать новый торрент и запустить его у себя в клиенте вместо старого, при этом указать клиенту путь в старую папку куда и должно происходить скачивание новых серий.
Ваш клиент при этом должен произвести хеширование (проверку) старой папки (если не производит сам - помогите ему сделать это), и будет докачивать только те серии которых у вас ещё нет. Старые серии при этом не удаляются, а продолжают раздаваться!
Eсли вы уже удалили старые серии, то предотвратить повторную закачку старых серий можно, отжав галочку в соответсвующих местах при запуске нового торрента. По возможности, желательно не удалять старые серии как можно дольше чтобы релизёр не столько продолжал раздавать старые серии, а смог сконцентрироваться на новых.




   Похожие торренты   Торрент   Размер 
В этой теме нет новых непрочитанных сообщений. Могучие реки / Jeremy Wade's Mighty Rivers [S01] (2018) HDTVRip 720р | RusFilm

6 | 0

6.56 ГБ

В этой теме нет новых непрочитанных сообщений. Могучие Реки / Jeremy Wade's Mighty Rivers [01х01-05 из 06] (2018) HDTVRip | RusFilm

3 | 1

2.58 ГБ

В этой теме нет новых непрочитанных сообщений. Могучие реки / Jeremy Wade's Mighty Rivers [S01] (2018) HDTVRip | RusFilm

4 | 4

3.09 ГБ

В этой теме нет новых непрочитанных сообщений. Реки мира / Rivers Of The World [01-06 из 06] (2009) HDTVRip | P1

156 | 13

2.21 ГБ

В этой теме нет новых непрочитанных сообщений. NG. Реки жизни / NG. Rivers and Life [01-06 из 06] (2009) HDTVRip 720p | P1

154 | 116

6.56 ГБ

В этой теме нет новых непрочитанных сообщений. Британские СС / SS-GB [01х01-03 из 05] (2017) HDTVRip 720р | RusFilm

1 | 0

2.9 ГБ

В этой теме нет новых непрочитанных сообщений. Британские СС / SS-GB [01х01 из 05] (2017) HDTVRip 720р | RusFilm

0 | 0

1.29 ГБ




Вы не можете начинать темы
Вы не можете отвечать на сообщения
Вы не можете редактировать свои сообщения
Вы не можете удалять свои сообщения
Вы не можете добавлять вложения

Перейти:  
cron
 Вход
ppkBB3cker v.2 © 2008-2014 @ PPK
[ Time : 0.040s | 16 Queries | GZIP : Off ]

cron