img image001 image001 image001 image001 image001 image001 image001 image001 image001 image001 image001 image001 image001 image001 image001 image001

Planets Sun Sun Sun
Статистика раздачи
Автор: Снежана | Размер: 14.94 ГБ | Добавлен: 14 авг 2018
Раздают: 0    Качают: 0
Скачать торрент
Скачать торрент
Описание торрента

СообщениеДобавлено: 14 авг 2018 

Земля: Один потрясающий день
Earth: One Amazing Day
«Один день. Одна планета. Невероятные чудеса»

Информация о фильме
Название: Земля: Один потрясающий день
Оригинальное название: Earth: One Amazing Day
Год выпуска: 2017
Жанр: Документальный, фауна, семейный
Выпущено: Великобритания, BBC
Режиссер: Ричард Дэйл, Фань Лисинь, Питер Веббер
В ролях: Роберт Редфорд, Джеки Чан
Продолжительность: 01:33:40
Перевод: Дублированный [Лицензия] [Николай Дроздов]
Описание:
Один обыкновенный и впечатляющий день из жизни разных представителей дикой природы: от неприметных насекомых до царственных хищников. Чем занимаются от рассвета до заката жители джунглей и ледников, морей и пустынь? Они выходят на охоту, борются за выживание, растят детенышей и втягиваются в круговорот удивительных приключений.


Файл
Контейнер: MKV
Качество: Blu-Ray Remux (1080p)
Видео: MPEG-4 AVC, 19095 Кбит/с, 1920x1080
Аудио: Русский (DTS-HD MA, 6 ch, 3730 Кбит/с)
Релиз от: Автор релиза: Ivantsov




Общее
Уникальный идентификатор : 338260310895541725722331693580184071877 (0xFE7A90F0DAB7C936AA4ECBA92D4E2EC5)
Полное имя : Earth.One.Amazing.Day.2017.1080p.RUS.TR.BDRemux.IVA(RUS).ExKinoRay.mkv
Формат : Matroska
Версия формата : Version 4 / Version 2
Размер файла : 14,9 Гбайт
Продолжительность : 1 ч. 33 м.
Режим общего битрейта : Переменный
Общий поток : 22,8 Мбит/сек
Название фильма : BBC. Земля: Один потрясающий день / Earth: One Amazing Day ( 2017 ) BDRemux 1080p | IVA(RUS) | ExKinoRay
Дата кодирования : UTC 2018-07-05 09:42:25
Программа кодирования : mkvmerge v24.0.0 ('Beyond The Pale') 64-bit
Библиотека кодирования : libebml v1.3.6 + libmatroska v1.4.9
Видео
Идентификатор : 1
Формат : AVC
Формат/Информация : Advanced Video Codec
Профиль формата : High@L4
Настройки формата : CABAC / 2 Ref Frames
Параметр CABAC формата : Да
Параметр RefFrames формата : 2 кадра
Параметр GOP формата : M=2, N=13
Идентификатор кодека : V_MPEG4/ISO/AVC
Продолжительность : 1 ч. 33 м.
Вид битрейта : Переменный
Битрейт : 19,1 Мбит/сек
Максимальный битрейт : 22,0 Мбит/сек
Ширина : 1920 пикселей
Высота : 1080 пикселей
Соотношение сторон : 16:9
Режим частоты кадров : Постоянный
Частота кадров : 24,000 кадра/сек
Цветовое пространство : YUV
Субдискретизация насыщенности : 4:2:0
Битовая глубина : 8 бит
Тип развёртки : Прогрессивная
Бит/(Пиксели*Кадры) : 0.384
Размер потока : 12,5 Гбайт (84%)
Язык : English
Default : Да
Forced : Нет
Аудио
Идентификатор : 2
Формат : DTS
Формат/Информация : Digital Theater Systems
Профиль формата : MA / Core
Идентификатор кодека : A_DTS
Продолжительность : 1 ч. 33 м.
Вид битрейта : Переменный / Постоянный
Битрейт : 3730 Кбит/сек / 1509 Кбит/сек
Каналы : 6 каналов
Расположение каналов : Front: L C R, Side: L R, LFE
Частота : 48,0 КГц
Частота кадров : 93,750 кадра/сек (512 SPF)
Битовая глубина : 24 бит
Метод сжатия : Без потерь / Lossy
Размер потока : 2,44 Гбайт (16%)
Язык : Russian
Default : Да
Forced : Нет
Меню
00:00:00.000 : en:Chapter 1
00:01:14.833 : en:Chapter 2
00:11:32.208 : en:Chapter 3
00:24:02.083 : en:Chapter 4
00:36:49.625 : en:Chapter 5
00:47:39.666 : en:Chapter 6
00:59:57.166 : en:Chapter 7
01:11:06.708 : en:Chapter 8
01:21:31.250 : en:Chapter 9



   Похожие торренты   Торрент   Размер 
В этой теме нет новых непрочитанных сообщений. Один потрясающий день / Earth: One Amazing Day (2017) BDRemux 1080p от ExKinoRay | Лицензия

0 | 0

32.62 ГБ

В этой теме нет новых непрочитанных сообщений. Земля: Один потрясающий день / Earth: One Amazing Day (2017) Blu-ray 1080p | Rus Transfer | Лицензия

10 | 2

17.06 ГБ

В этой теме нет новых непрочитанных сообщений. Один потрясающий день / Earth: One Amazing Day (2017) UHD BDRemux 2160p от ExKinoRay | HDR | Лицензия

0 | 0

50.51 ГБ

В этой теме нет новых непрочитанных сообщений. Один потрясающий день / Earth: One Amazing Day (2017) UHD BDRemux 2160p от ExKinoRay | HDR | Dolby Vision | Лицензия

0 | 0

59.03 ГБ

В этой теме нет новых непрочитанных сообщений. Земля: Один потрясающий день / Earth: One Amazing Day (2017) BDRip-AVC от ExKinoRay | Лицензия

0 | 0

745.08 МБ

В этой теме нет новых непрочитанных сообщений. Земля: Один потрясающий день / Earth: One Amazing Day (2017) HDRip от ExKinoRay | D

0 | 0

745.86 МБ

В этой теме нет новых непрочитанных сообщений. Земля: Один потрясающий день / Earth: One Amazing Day (2017) BDRip от MegaPeer | Лицензия

461 | 1

1.46 ГБ




Вы не можете начинать темы
Вы не можете отвечать на сообщения
Вы не можете редактировать свои сообщения
Вы не можете удалять свои сообщения
Вы не можете добавлять вложения

Перейти:  
 Вход
ppkBB3cker v.2 © 2008-2014 @ PPK
[ Time : 0.018s | 18 Queries | GZIP : Off ]

cron