img image001 image001 image001 image001 image001 image001 image001 image001 image001 image001 image001 image001 image001 image001 image001 image001

Planets Sun Sun Sun
Статистика раздачи
Автор: Снежана | Размер: 1.22 ГБ | Добавлен: 14 авг 2018
Раздают: 12    Качают: 0
Скачать торрент
Скачать торрент
Описание торрента

СообщениеДобавлено: 14 авг 2018 

Название: Смертельный улов
Оригинальное название: Deadliest Catch
Год выхода: 2018
Жанр: Документальный, приключения, реалити-шоу
Режиссер: Том Бирс
В ролях:
Майк Роу, Сиг Хансен, Эдгар Хансен, Кит Колберн, Джонатан Хиллстренд, Джейк Андерсон, Энди Хиллстренд, Джош Харрис, Фил Харрис др.
Описание сериала:
Ловля крабов в Беринговом море у берегов Аляски – работа трудная и чрезвычайно опасная. В этом сезоне одни герои программы настроены оптимистично, другие – смотрят в будущее с опаской. Так, Дикий Билл вкладывает все деньги в новое судно, а для братьев Хиллстренд этот сезон грозится стать последним. Сигу не удается найти золотую середину между здоровьем и богатством, а молодые капитаны Джейк и Шон пытаются отстоять своё место во флотилии краболовов. Между тем температура воды в Беринговом море лишь за один прошлый год поднялась на 4 градуса, что в 50 раз превышает скорость потепления мирового океана. Как следствие, исчезают крабы и краболовы в панике ищут новые места лова. Капитан Сиг, перенесший инфаркт, готовится к худшему. После трудного прошлого сезона похудевший, трезвый и злой Кит Колберн вновь встает за штурвал. Квоты сокращены, Шон изо всех сил пытается сохранить наследие безвременно умершего отца. И, наконец, профессиональное будущее Джейка Андерсона после провального предыдущего сезона находится под вопросом.
Страна: США
Производство: Discovery Channel HD
Продолжительность: ~00:45:00
Перевод: Любительский (одноголосый) NEON Studio
Субтитры: Отсутствуют


Файл
Формат: MKV
Качество: HDTVRip (720p)
Видео: MPEG-4 AVC, ~ 4000 Кбит/с, 1280x720
Аудио: 48 kHz, AC3 Dolby Digital, 2/0 (L,R) ch, ~192 kbps
Релиз группа:

Общее
Уникальный идентификатор : 275116225421475788101794808905339221895 (0xCEF9752A08152FD2BEB20F1CD503B787)
Полное имя : Deadliest.Catch.S14E01.720p.HDTVRip.NEONStudio.mkv
Формат : Matroska
Версия формата : Version 4 / Version 2
Размер файла : 1,22 Гбайт
Продолжительность : 41 м. 54 с.
Общий поток : 4166 Кбит/сек
Дата кодирования : UTC 2018-07-09 04:17:27
Программа кодирования : mkvmerge v24.0.0 ('Beyond The Pale') 64-bit
Библиотека кодирования : libebml v1.3.6 + libmatroska v1.4.9
Видео
Идентификатор : 1
Формат : AVC
Формат/Информация : Advanced Video Codec
Профиль формата : Baseline@L3.1
Настройки формата : 2 Ref Frames
Параметр CABAC формата : Нет
Параметр RefFrames формата : 2 кадра
Идентификатор кодека : V_MPEG4/ISO/AVC
Продолжительность : 41 м. 54 с.
Битрейт : 4000 Кбит/сек
Ширина : 1280 пикселей
Высота : 720 пикселей
Соотношение сторон : 16:9
Режим частоты кадров : Постоянный
Частота кадров : 25,000 кадров/сек
Цветовое пространство : YUV
Субдискретизация насыщенности : 4:2:0
Битовая глубина : 8 бит
Тип развёртки : Прогрессивная
Бит/(Пиксели*Кадры) : 0.174
Размер потока : 1,16 Гбайт (95%)
Библиотека кодирования : x264 core 142
Настройки программы : cabac=0 / ref=2 / deblock=1:0:0 / analyse=0x1:0x111 / me=hex / subme=4 / psy=1 / psy_rd=1.00:0.00 / mixed_ref=0 / me_range=16 / chroma_me=1 / trellis=1 / 8x8dct=0 / cqm=0 / deadzone=21,11 / fast_pskip=1 / chroma_qp_offset=0 / threads=3 / lookahead_threads=1 / sliced_threads=0 / nr=0 / decimate=1 / interlaced=0 / bluray_compat=0 / constrained_intra=0 / bframes=0 / weightp=0 / keyint=250 / keyint_min=25 / scenecut=40 / intra_refresh=0 / rc_lookahead=20 / rc=abr / mbtree=1 / bitrate=4000 / ratetol=1.0 / qcomp=0.60 / qpmin=0 / qpmax=69 / qpstep=4 / ip_ratio=1.40 / aq=1:1.00
Язык : English
Default : Да
Forced : Нет
Аудио
Идентификатор : 2
Формат : AC-3
Формат/Информация : Audio Coding 3
Идентификатор кодека : A_AC3
Продолжительность : 41 м. 54 с.
Вид битрейта : Постоянный
Битрейт : 192 Кбит/сек
Каналы : 2 канала
Расположение каналов : Front: L R
Частота : 48,0 КГц
Частота кадров : 31,250 кадров/сек (1536 SPF)
Битовая глубина : 16 бит
Метод сжатия : С потерями
Задержка видео : -23 мс.
Размер потока : 57,6 Мбайт (5%)
Default : Да
Forced : Нет



   Похожие торренты   Торрент   Размер 
В этой теме нет новых непрочитанных сообщений. Discovery. Смертельный улов / Deadliest Catch [14х01 из 14] (2018) HDTVRip | NEON Studio

0 | 0

510.23 МБ

В этой теме нет новых непрочитанных сообщений. Смертельный улов / Discovery: Deadliest Catch [S10] (2014) HDTVRip от HitWay | P2

21 | 16

6.88 ГБ

В этой теме нет новых непрочитанных сообщений. Смертельный улов / Discovery: Deadliest Catch [S10] (2014) HDTVRip от HitWay | P2

21 | 32

7.41 ГБ

В этой теме нет новых непрочитанных сообщений. Discovery. Смертельный улов / Deadliest Catch [S11] (2014-2015) HDTVRip от GeneralFilm | P2

58 | 12

10.68 ГБ

В этой теме нет новых непрочитанных сообщений. Discovery. Смертельный улов / Deadliest Catch [11x01] (2014) HDTVRip от GeneralFilm | P2

32 | 15

2.13 ГБ

В этой теме нет новых непрочитанных сообщений. Discovery. Смертельный улов / Deadliest Catch [13х01] (2017) HDTVRip от HitWay | P2

2 | 0

5.34 ГБ

В этой теме нет новых непрочитанных сообщений. Discovery. Смертельный улов / Deadliest Catch [13х01] (2017) HDTVRip от HitWay | P2

0 | 0

3.21 ГБ




Вы не можете начинать темы
Вы не можете отвечать на сообщения
Вы не можете редактировать свои сообщения
Вы не можете удалять свои сообщения
Вы не можете добавлять вложения

Перейти:  
 Вход
ppkBB3cker v.2 © 2008-2014 @ PPK
[ Time : 0.036s | 18 Queries | GZIP : Off ]

cron