img image001 image001 image001 image001 image001 image001 image001 image001 image001 image001 image001 image001 image001 image001 image001 image001

Planets Sun Sun Sun
Статистика раздачи
Автор: Снежана | Размер: 3.75 ГБ | Добавлен: 14 авг 2018
Раздают: 236    Качают: 12
Скачать торрент
Скачать торрент
Описание торрента

СообщениеДобавлено: 14 авг 2018 

Генезис 2.0 / Genesis 2.0
Страна: Швейцария Китай Россия Южная Корея США
Производство: Christian Frei Filmproductions
Год выпуска: 2018
Жанр: документальный
Продолжительность: 01:53:11
Режиссеры: Кристиан Фрай, Максим Арбугаев
Автор сценария и продюсер: Кристиан Фрай
Описание: На далёких островах северных широт, в условиях вечной мерзлоты охотники за трофеями заняты поисками бесценных сокровищ «чёрного» рынка — бивней доисторических мамонтов. Одна из таких экспедиций обнаруживает прекрасно сохранившиеся останки древнего зверя. Поразительная находка вызвала интерес в биотехнологическом мире. Фрагменты животного с живыми клетками доставляют в лабораторию по клонированию в Южной Корее. Её честолюбивый глава Хван У Сок берётся возродить мамонтов к жизни и совершить революцию в науке и судьбах человечества…

Перевод: Профессиональный (одноголосый, закадровый) | студия Позитив
Субтитры: нет

Качество: WEB-DL 1080р
Формат: МКV
Видео кодек: AVC
Аудио кодек: AAC
Видео: 1920x1080 (16:9), 25.000 fps, MPEG-4 AVC ~4 554 kbps avg
Аудио: 48.0 kHz, Advanced Audio Codec LC, 2/0 (L,R) ch, ~192 kbps
Дата премьеры (мир): 20 января 2018
Дата премьеры (РФ): 12 июля 2018, «Русский Репортаж»

Релиз от: ylnian
General
Уникальный идентификатор : 8116286388247087225690628761364077557 (0x61B23D06FAE06B598C657A9470A1BF5)
Полное имя : Genesis.2.0.2018.WEB-DL.1080p-ylnian.mkv
Формат : Matroska
Версия формата : Version 4 / Version 2
Размер файла : 3,75 Гбайт
Продолжительность : 1 ч. 53 м.
Общий поток : 4748 Кбит/сек
Дата кодирования : UTC 2018-07-22 17:08:42
Программа кодирования : mkvmerge v25.0.0 ('Prog Noir') 64-bit
Библиотека кодирования : libebml v1.3.6 + libmatroska v1.4.9
Видео
Идентификатор : 1
Формат : AVC
Формат/Информация : Advanced Video Codec
Профиль формата : High@L4.1
Настройки формата : CABAC / 4 Ref Frames
Параметр CABAC формата : Да
Параметр RefFrames формата : 4 кадра
Идентификатор кодека : V_MPEG4/ISO/AVC
Продолжительность : 1 ч. 53 м.
Вид битрейта : Постоянный
Битрейт : 4554 Кбит/сек
Номинальный битрейт : 4800 Кбит/сек / 4800 Кбит/сек
Ширина : 1920 пикселей
Высота : 1080 пикселей
Соотношение сторон : 16:9
Режим частоты кадров : Постоянный
Частота кадров : 25,000 кадров/сек
Цветовое пространство : YUV
Субдискретизация насыщенности : 4:2:0
Битовая глубина : 8 бит
Тип развёртки : Прогрессивная
Бит/(Пиксели*Кадры) : 0.088
Размер потока : 3,60 Гбайт (96%)
Библиотека кодирования : x264 core 148
Настройки программы : cabac=1 / ref=2 / deblock=1:0:0 / analyse=0x3:0x113 / me=hex / subme=6 / psy=1 / psy_rd=1.00:0.00 / mixed_ref=1 / me_range=16 / chroma_me=1 / trellis=1 / 8x8dct=1 / cqm=0 / deadzone=21,11 / fast_pskip=1 / chroma_qp_offset=-2 / threads=1 / lookahead_threads=1 / sliced_threads=0 / nr=0 / decimate=1 / interlaced=0 / bluray_compat=0 / constrained_intra=0 / bframes=3 / b_pyramid=2 / b_adapt=1 / b_bias=0 / direct=1 / weightb=1 / open_gop=0 / weightp=1 / keyint=250 / keyint_min=25 / scenecut=0 / intra_refresh=0 / rc_lookahead=30 / rc=cbr / mbtree=1 / bitrate=4800 / ratetol=1.0 / qcomp=0.60 / qpmin=0 / qpmax=69 / qpstep=4 / vbv_maxrate=4800 / vbv_bufsize=2400 / nal_hrd=cbr / filler=1 / ip_ratio=1.40 / aq=1:1.00
Язык : English
Default : Да
Forced : Да
Аудио
Идентификатор : 2
Формат : AAC
Формат/Информация : Advanced Audio Codec
Профиль формата : LC
Идентификатор кодека : A_AAC-2
Продолжительность : 1 ч. 53 м.
Битрейт : 192 Кбит/сек
Каналы : 2 канала
Расположение каналов : Front: L R
Частота : 48,0 КГц
Частота кадров : 46,875 кадров/сек (1024 SPF)
Метод сжатия : С потерями
Задержка видео : -101 мс.
Размер потока : 155 Мбайт (4%)
Язык : Russian
Default : Да
Forced : Да



   Похожие торренты   Торрент   Размер 
В этой теме нет новых непрочитанных сообщений. Генезис 2.0 / Genesis 2.0 (2018) WEB-DLRip | P1

145 | 10

1.46 ГБ

В этой теме нет новых непрочитанных сообщений. Генезис / Genesis (Фредди Хаттон-Миллс, Барт Располи) [2018, фантастика, WEBDLRip] MVO

41 | 2

1.46 ГБ

В этой теме нет новых непрочитанных сообщений. Дети кукурузы: Генезис / Children of the Corn: Genesis (2011) BDRip 1080p | L1

12 | 3

6.81 ГБ

В этой теме нет новых непрочитанных сообщений. Дети кукурузы: Генезис / Children of the Corn: Genesis (2011) HDRip от Portablius | L1

15 | 1

741.42 МБ

В этой теме нет новых непрочитанных сообщений. Генезис 2.0 (Эфир от 22.07.2018) (Максим Арбугаев) [2018, документальный, SATRip]

6 | 0

1.57 ГБ

В этой теме нет новых непрочитанных сообщений. Genesis: Части Целого / Genesis: Together and Apart (2014) HDTVRip 720p | P

15 | 0

2.75 ГБ

В этой теме нет новых непрочитанных сообщений. Genesis: Части Целого / Genesis: Together and Apart (2014) HDTVRip-AVC | P

130 | 0

1.18 ГБ




Вы не можете начинать темы
Вы не можете отвечать на сообщения
Вы не можете редактировать свои сообщения
Вы не можете удалять свои сообщения
Вы не можете добавлять вложения

Перейти:  
 Вход
ppkBB3cker v.2 © 2008-2014 @ PPK
[ Time : 0.033s | 15 Queries | GZIP : Off ]

cron