img image001 image001 image001 image001 image001 image001 image001 image001 image001 image001 image001 image001 image001 image001 image001 image001

Planets Sun Sun Sun
Статистика раздачи
Автор: Снежана | Размер: 9.52 ГБ | Добавлен: 14 авг 2018
Раздают: 14    Качают: 2
Скачать торрент
Скачать торрент
Описание торрента

СообщениеДобавлено: 14 авг 2018 

Информация о фильме
Название: Поле Разума
Оригинальное название: Mind Field
Год выхода: 2017-2018
Жанр: Образование, Научно-популярное Шоу
Режиссер: Майкл Стивенс
О фильме:
Mind Field - американский веб-сериал, созданный исключительно для YouTube Red Майклом Стивенсом, создателем YouTube канала «Vsauce». Премьера первых двух эпизодов состоялась на главном канале «Vsauce» 18 января 2017 года, а затем выходили еженедельные эпизоды до 1 марта 2017 года, второй сезон начал транслироваться с 6 декабря 2017 года.
Формат сериала очень напоминает формат канала «Vsauce», представляя эпизоды в документальном стиле, которые фокусируются на интересных аспектах человеческого поведения, мозга и сознания. Каждый эпизод содержит эксперимент, в котором участвуют либо добровольцы, либо сам Майкл. Например, в первом эпизоде Майкл запирает себя в пустой комнате в течение трёх дней, чтобы исследовать влияние одиночного заключения на мозг.
Страна: США
Продолжительность: 16х ~25 мин.
Перевод: Любительский Одноголосый закадровый { Voice Power }
Файл
Кодек: AVC/H.264
Качество: WEBRip 720p
Видео: 1280х720 (16:9), 23.976 fps, ~2739 kbps
Звук: Русский, ААС, 2 ch, VBR 256 kbps, 48 kHz, Английский, ААС, 2 ch, VBR 256 kbps, 48 kHz
Субтитры: Английские / PGS
/ ВНИМАНИЕ! видео имеет профиль High@L4.2 могут быть проблемы воспроизведения на некоторой технике /
Код:
General
Unique ID                   : 265992253874507124773742407951643621218 (0xC81C3EA2C583409AD802A1C8AD98B762)
Complete name               : D:СкачкаMind.Field.S01-02.2017-2018.RED.WEB-DLRip.720p-VoicePowerS01S01E01 Isolation.mkv
Format                      : Matroska
Format version              : Version 4 / Version 2
File size                   : 782 MiB
Duration                    : 34 min 45 s
Overall bit rate mode       : Variable
Overall bit rate            : 3 146 kb/s
Encoded date                : UTC 2018-07-24 16:03:15
Writing application         : mkvmerge v25.0.0 ('Prog Noir') 64-bit
Writing library             : libebml v1.3.6 + libmatroska v1.4.9
Video
ID                          : 1
Format                      : AVC
Format/Info                 : Advanced Video Codec
Format profile              : High@L4.2
Format settings             : CABAC / 9 Ref Frames
Format settings, CABAC      : Yes
Format settings, ReFrames   : 9 frames
Codec ID                    : V_MPEG4/ISO/AVC
Duration                    : 34 min 45 s
Bit rate mode               : Variable
Bit rate                    : 2 777 kb/s
Maximum bit rate            : 40.0 Mb/s
Width                       : 1 280 pixels
Height                      : 720 pixels
Display aspect ratio        : 16:9
Frame rate mode             : Constant
Frame rate                  : 23.976 (24000/1001) FPS
Color space                 : YUV
Chroma subsampling          : 4:2:0
Bit depth                   : 8 bits
Scan type                   : Progressive
Bits/(Pixel*Frame)          : 0.126
Stream size                 : 690 MiB (88%)
Default                     : Yes
Forced                      : No
Audio #1
ID                          : 2
Format                      : AAC
Format/Info                 : Advanced Audio Codec
Format profile              : LC
Codec ID                    : A_AAC-2
Duration                    : 34 min 45 s
Bit rate                    : 161 kb/s
Channel(s)                  : 2 channels
Channel positions           : Front: L R
Sampling rate               : 48.0 kHz
Frame rate                  : 46.875 FPS (1024 SPF)
Compression mode            : Lossy
Delay relative to video     : 20 ms
Stream size                 : 40.0 MiB (5%)
Language                    : Russian
Default                     : Yes
Forced                      : No
Audio #2
ID                          : 3
Format                      : AAC
Format/Info                 : Advanced Audio Codec
Format profile              : LC
Codec ID                    : A_AAC-2
Duration                    : 34 min 45 s
Bit rate                    : 168 kb/s
Channel(s)                  : 2 channels
Channel positions           : Front: L R
Sampling rate               : 48.0 kHz
Frame rate                  : 46.875 FPS (1024 SPF)
Compression mode            : Lossy
Delay relative to video     : 20 ms
Stream size                 : 41.7 MiB (5%)
Language                    : English
Default                     : No
Forced                      : No
Text
ID                          : 4
Format                      : PGS
Muxing mode                 : zlib
Codec ID                    : S_HDMV/PGS
Codec ID/Info               : Picture based subtitle format used on BDs/HD-DVDs
Duration                    : 34 min 15 s
Bit rate                    : 83.9 kb/s
Count of elements           : 1466
Stream size                 : 20.5 MiB (3%)
Language                    : English
Default                     : Yes
Forced                      : No
General
Unique ID                   : 233429440967066188804738180467534622166 (0xAF9CE001B4489F755CCF700671186DD6)
Complete name               : D:СкачкаMind.Field.S01-02.2017-2018.RED.WEB-DLRip.720p-VoicePowerS01S01E02 Conformity.mkv
Format                      : Matroska
Format version              : Version 4 / Version 2
File size                   : 609 MiB
Duration                    : 23 min 9 s
Overall bit rate mode       : Variable
Overall bit rate            : 3 679 kb/s
Encoded date                : UTC 2018-07-24 16:06:51
Writing application         : mkvmerge v25.0.0 ('Prog Noir') 64-bit
Writing library             : libebml v1.3.6 + libmatroska v1.4.9
Video
ID                          : 1
Format                      : AVC
Format/Info                 : Advanced Video Codec
Format profile              : High@L4.2
Format settings             : CABAC / 9 Ref Frames
Format settings, CABAC      : Yes
Format settings, ReFrames   : 9 frames
Codec ID                    : V_MPEG4/ISO/AVC
Duration                    : 23 min 9 s
Bit rate mode               : Variable
Bit rate                    : 3 318 kb/s
Maximum bit rate            : 40.0 Mb/s
Width                       : 1 280 pixels
Height                      : 720 pixels
Display aspect ratio        : 16:9
Frame rate mode             : Constant
Frame rate                  : 23.976 (24000/1001) FPS
Color space                 : YUV
Chroma subsampling          : 4:2:0
Bit depth                   : 8 bits
Scan type                   : Progressive
Bits/(Pixel*Frame)          : 0.150
Stream size                 : 549 MiB (90%)
Default                     : Yes
Forced                      : No
Audio #1
ID                          : 2
Format                      : AAC
Format/Info                 : Advanced Audio Codec
Format profile              : LC
Codec ID                    : A_AAC-2
Duration                    : 23 min 9 s
Bit rate                    : 153 kb/s
Channel(s)                  : 2 channels
Channel positions           : Front: L R
Sampling rate               : 48.0 kHz
Frame rate                  : 46.875 FPS (1024 SPF)
Compression mode            : Lossy
Delay relative to video     : 20 ms
Stream size                 : 25.3 MiB (4%)
Language                    : Russian
Default                     : Yes
Forced                      : No
Audio #2
ID                          : 3
Format                      : AAC
Format/Info                 : Advanced Audio Codec
Format profile              : LC
Codec ID                    : A_AAC-2
Duration                    : 23 min 9 s
Bit rate                    : 159 kb/s
Channel(s)                  : 2 channels
Channel positions           : Front: L R
Sampling rate               : 48.0 kHz
Frame rate                  : 46.875 FPS (1024 SPF)
Compression mode            : Lossy
Delay relative to video     : 20 ms
Stream size                 : 26.3 MiB (4%)
Language                    : English
Default                     : No
Forced                      : No
Text
ID                          : 4
Format                      : PGS
Muxing mode                 : zlib
Codec ID                    : S_HDMV/PGS
Codec ID/Info               : Picture based subtitle format used on BDs/HD-DVDs
Duration                    : 22 min 39 s
Bit rate                    : 102 kb/s
Count of elements           : 1222
Stream size                 : 16.5 MiB (3%)
Language                    : English
Default                     : Yes
Forced                      : No
General
Unique ID                   : 234710417286177383965526957901963493094 (0xB0939503EC3CF1A6A4E030EF4C727EE6)
Complete name               : D:СкачкаMind.Field.S01-02.2017-2018.RED.WEB-DLRip.720p-VoicePowerS01S01E03 Destruction.mkv
Format                      : Matroska
Format version              : Version 4 / Version 2
File size                   : 791 MiB
Duration                    : 25 min 34 s
Overall bit rate mode       : Variable
Overall bit rate            : 4 326 kb/s
Encoded date                : UTC 2018-07-24 16:07:34
Writing application         : mkvmerge v25.0.0 ('Prog Noir') 64-bit
Writing library             : libebml v1.3.6 + libmatroska v1.4.9
Video
ID                          : 1
Format                      : AVC
Format/Info                 : Advanced Video Codec
Format profile              : High@L4.2
Format settings             : CABAC / 9 Ref Frames
Format settings, CABAC      : Yes
Format settings, ReFrames   : 9 frames
Codec ID                    : V_MPEG4/ISO/AVC
Duration                    : 25 min 34 s
Bit rate mode               : Variable
Bit rate                    : 3 948 kb/s
Maximum bit rate            : 40.0 Mb/s
Width                       : 1 280 pixels
Height                      : 720 pixels
Display aspect ratio        : 16:9
Frame rate mode             : Constant
Frame rate                  : 23.976 (24000/1001) FPS
Color space                 : YUV
Chroma subsampling          : 4:2:0
Bit depth                   : 8 bits
Scan type                   : Progressive
Bits/(Pixel*Frame)          : 0.179
Stream size                 : 722 MiB (91%)
Default                     : Yes
Forced                      : No
Audio #1
ID                          : 2
Format                      : AAC
Format/Info                 : Advanced Audio Codec
Format profile              : LC
Codec ID                    : A_AAC-2
Duration                    : 25 min 34 s
Bit rate                    : 161 kb/s
Channel(s)                  : 2 channels
Channel positions           : Front: L R
Sampling rate               : 48.0 kHz
Frame rate                  : 46.875 FPS (1024 SPF)
Compression mode            : Lossy
Delay relative to video     : 20 ms
Stream size                 : 29.4 MiB (4%)
Language                    : Russian
Default                     : Yes
Forced                      : No
Audio #2
ID                          : 3
Format                      : AAC
Format/Info                 : Advanced Audio Codec
Format profile              : LC
Codec ID                    : A_AAC-2
Duration                    : 25 min 34 s
Bit rate                    : 172 kb/s
Channel(s)                  : 2 channels
Channel positions           : Front: L R
Sampling rate               : 48.0 kHz
Frame rate                  : 46.875 FPS (1024 SPF)
Compression mode            : Lossy
Delay relative to video     : 20 ms
Stream size                 : 31.6 MiB (4%)
Language                    : English
Default                     : No
Forced                      : No
Text
ID                          : 4
Format                      : PGS
Muxing mode                 : zlib
Codec ID                    : S_HDMV/PGS
Codec ID/Info               : Picture based subtitle format used on BDs/HD-DVDs
Duration                    : 25 min 3 s
Bit rate                    : 89.4 kb/s
Count of elements           : 1130
Stream size                 : 16.0 MiB (2%)
Language                    : English
Default                     : Yes
Forced                      : No
General
Unique ID                   : 174673128956420263662592082130648300738 (0x8368D22A0585B59AE795FB02AA1DFCC2)
Complete name               : D:СкачкаMind.Field.S01-02.2017-2018.RED.WEB-DLRip.720p-VoicePowerS01S01E04 Artificial Intelligence.mkv
Format                      : Matroska
Format version              : Version 4 / Version 2
File size                   : 474 MiB
Duration                    : 24 min 59 s
Overall bit rate mode       : Variable
Overall bit rate            : 2 654 kb/s
Encoded date                : UTC 2018-07-24 16:08:22
Writing application         : mkvmerge v25.0.0 ('Prog Noir') 64-bit
Writing library             : libebml v1.3.6 + libmatroska v1.4.9
Video
ID                          : 1
Format                      : AVC
Format/Info                 : Advanced Video Codec
Format profile              : High@L4.2
Format settings             : CABAC / 9 Ref Frames
Format settings, CABAC      : Yes
Format settings, ReFrames   : 9 frames
Codec ID                    : V_MPEG4/ISO/AVC
Duration                    : 24 min 59 s
Bit rate mode               : Variable
Bit rate                    : 2 288 kb/s
Maximum bit rate            : 40.0 Mb/s
Width                       : 1 280 pixels
Height                      : 720 pixels
Display aspect ratio        : 16:9
Frame rate mode             : Constant
Frame rate                  : 23.976 (24000/1001) FPS
Color space                 : YUV
Chroma subsampling          : 4:2:0
Bit depth                   : 8 bits
Scan type                   : Progressive
Bits/(Pixel*Frame)          : 0.104
Stream size                 : 409 MiB (86%)
Default                     : Yes
Forced                      : No
Audio #1
ID                          : 2
Format                      : AAC
Format/Info                 : Advanced Audio Codec
Format profile              : LC
Codec ID                    : A_AAC-2
Duration                    : 24 min 59 s
Bit rate                    : 154 kb/s
Channel(s)                  : 2 channels
Channel positions           : Front: L R
Sampling rate               : 48.0 kHz
Frame rate                  : 46.875 FPS (1024 SPF)
Compression mode            : Lossy
Delay relative to video     : 20 ms
Stream size                 : 27.5 MiB (6%)
Language                    : Russian
Default                     : Yes
Forced                      : No
Audio #2
ID                          : 3
Format                      : AAC
Format/Info                 : Advanced Audio Codec
Format profile              : LC
Codec ID                    : A_AAC-2
Duration                    : 24 min 59 s
Bit rate                    : 164 kb/s
Channel(s)                  : 2 channels
Channel positions           : Front: L R
Sampling rate               : 48.0 kHz
Frame rate                  : 46.875 FPS (1024 SPF)
Compression mode            : Lossy
Delay relative to video     : 20 ms
Stream size                 : 29.2 MiB (6%)
Language                    : English
Default                     : No
Forced                      : No
Text
ID                          : 4
Format                      : PGS
Muxing mode                 : zlib
Codec ID                    : S_HDMV/PGS
Codec ID/Info               : Picture based subtitle format used on BDs/HD-DVDs
Duration                    : 24 min 25 s
Bit rate                    : 104 kb/s
Count of elements           : 1164
Stream size                 : 18.2 MiB (4%)
Language                    : English
Default                     : Yes
Forced                      : No
General
Unique ID                   : 244091922630099686225596818873262762903 (0xB7A264F0B09C18B43B3D3AFBCAB76B97)
Complete name               : D:СкачкаMind.Field.S01-02.2017-2018.RED.WEB-DLRip.720p-VoicePowerS01S01E05 Freedom of Choice.mkv
Format                      : Matroska
Format version              : Version 4 / Version 2
File size                   : 551 MiB
Duration                    : 22 min 25 s
Overall bit rate mode       : Variable
Overall bit rate            : 3 438 kb/s
Encoded date                : UTC 2018-07-24 16:09:09
Writing application         : mkvmerge v25.0.0 ('Prog Noir') 64-bit
Writing library             : libebml v1.3.6 + libmatroska v1.4.9
Video
ID                          : 1
Format                      : AVC
Format/Info                 : Advanced Video Codec
Format profile              : High@L4.2
Format settings             : CABAC / 9 Ref Frames
Format settings, CABAC      : Yes
Format settings, ReFrames   : 9 frames
Codec ID                    : V_MPEG4/ISO/AVC
Duration                    : 22 min 25 s
Bit rate mode               : Variable
Bit rate                    : 3 067 kb/s
Maximum bit rate            : 40.0 Mb/s
Width                       : 1 280 pixels
Height                      : 720 pixels
Display aspect ratio        : 16:9
Frame rate mode             : Constant
Frame rate                  : 23.976 (24000/1001) FPS
Color space                 : YUV
Chroma subsampling          : 4:2:0
Bit depth                   : 8 bits
Scan type                   : Progressive
Bits/(Pixel*Frame)          : 0.139
Stream size                 : 492 MiB (89%)
Default                     : Yes
Forced                      : No
Audio #1
ID                          : 2
Format                      : AAC
Format/Info                 : Advanced Audio Codec
Format profile              : LC
Codec ID                    : A_AAC-2
Duration                    : 22 min 25 s
Bit rate                    : 156 kb/s
Channel(s)                  : 2 channels
Channel positions           : Front: L R
Sampling rate               : 48.0 kHz
Frame rate                  : 46.875 FPS (1024 SPF)
Compression mode            : Lossy
Delay relative to video     : 20 ms
Stream size                 : 25.0 MiB (5%)
Language                    : Russian
Default                     : Yes
Forced                      : No
Audio #2
ID                          : 3
Format                      : AAC
Format/Info                 : Advanced Audio Codec
Format profile              : LC
Codec ID                    : A_AAC-2
Duration                    : 22 min 25 s
Bit rate                    : 166 kb/s
Channel(s)                  : 2 channels
Channel positions           : Front: L R
Sampling rate               : 48.0 kHz
Frame rate                  : 46.875 FPS (1024 SPF)
Compression mode            : Lossy
Delay relative to video     : 20 ms
Stream size                 : 26.7 MiB (5%)
Language                    : English
Default                     : No
Forced                      : No
Text
ID                          : 4
Format                      : PGS
Muxing mode                 : zlib
Codec ID                    : S_HDMV/PGS
Codec ID/Info               : Picture based subtitle format used on BDs/HD-DVDs
Duration                    : 21 min 54 s
Bit rate                    : 101 kb/s
Count of elements           : 1050
Stream size                 : 15.8 MiB (3%)
Language                    : English
Default                     : Yes
Forced                      : No
General
Unique ID                   : 237979346029093155387899601401607104864 (0xB30927A5519235E20F865FFB7A482960)
Complete name               : D:СкачкаMind.Field.S01-02.2017-2018.RED.WEB-DLRip.720p-VoicePowerS01S01E06 Touch.mkv
Format                      : Matroska
Format version              : Version 4 / Version 2
File size                   : 548 MiB
Duration                    : 21 min 35 s
Overall bit rate mode       : Variable
Overall bit rate            : 3 546 kb/s
Encoded date                : UTC 2018-07-24 16:09:47
Writing application         : mkvmerge v25.0.0 ('Prog Noir') 64-bit
Writing library             : libebml v1.3.6 + libmatroska v1.4.9
Video
ID                          : 1
Format                      : AVC
Format/Info                 : Advanced Video Codec
Format profile              : High@L4.2
Format settings             : CABAC / 9 Ref Frames
Format settings, CABAC      : Yes
Format settings, ReFrames   : 9 frames
Codec ID                    : V_MPEG4/ISO/AVC
Duration                    : 21 min 35 s
Bit rate mode               : Variable
Bit rate                    : 3 190 kb/s
Maximum bit rate            : 40.0 Mb/s
Width                       : 1 280 pixels
Height                      : 720 pixels
Display aspect ratio        : 16:9
Frame rate mode             : Constant
Frame rate                  : 23.976 (24000/1001) FPS
Color space                 : YUV
Chroma subsampling          : 4:2:0
Bit depth                   : 8 bits
Scan type                   : Progressive
Bits/(Pixel*Frame)          : 0.144
Stream size                 : 493 MiB (90%)
Default                     : Yes
Forced                      : No
Audio #1
ID                          : 2
Format                      : AAC
Format/Info                 : Advanced Audio Codec
Format profile              : LC
Codec ID                    : A_AAC-2
Duration                    : 21 min 35 s
Bit rate                    : 151 kb/s
Channel(s)                  : 2 channels
Channel positions           : Front: L R
Sampling rate               : 48.0 kHz
Frame rate                  : 46.875 FPS (1024 SPF)
Compression mode            : Lossy
Delay relative to video     : 20 ms
Stream size                 : 23.3 MiB (4%)
Language                    : Russian
Default                     : Yes
Forced                      : No
Audio #2
ID                          : 3
Format                      : AAC
Format/Info                 : Advanced Audio Codec
Format profile              : LC
Codec ID                    : A_AAC-2
Duration                    : 21 min 35 s
Bit rate                    : 156 kb/s
Channel(s)                  : 2 channels
Channel positions           : Front: L R
Sampling rate               : 48.0 kHz
Frame rate                  : 46.875 FPS (1024 SPF)
Compression mode            : Lossy
Delay relative to video     : 20 ms
Stream size                 : 24.1 MiB (4%)
Language                    : English
Default                     : No
Forced                      : No
Text
ID                          : 4
Format                      : PGS
Muxing mode                 : zlib
Codec ID                    : S_HDMV/PGS
Codec ID/Info               : Picture based subtitle format used on BDs/HD-DVDs
Duration                    : 21 min 4 s
Bit rate                    : 103 kb/s
Count of elements           : 982
Stream size                 : 15.5 MiB (3%)
Language                    : English
Default                     : Yes
Forced                      : No
General
Unique ID                   : 41329476796901004029959592967732613104 (0x1F17C487A72CB777EB1768DBC87E4FF0)
Complete name               : D:СкачкаMind.Field.S01-02.2017-2018.RED.WEB-DLRip.720p-VoicePowerS01S01E07 In Your Face.mkv
Format                      : Matroska
Format version              : Version 4 / Version 2
File size                   : 606 MiB
Duration                    : 24 min 33 s
Overall bit rate mode       : Variable
Overall bit rate            : 3 451 kb/s
Encoded date                : UTC 2018-07-24 16:10:30
Writing application         : mkvmerge v25.0.0 ('Prog Noir') 64-bit
Writing library             : libebml v1.3.6 + libmatroska v1.4.9
Video
ID                          : 1
Format                      : AVC
Format/Info                 : Advanced Video Codec
Format profile              : High@L4.2
Format settings             : CABAC / 9 Ref Frames
Format settings, CABAC      : Yes
Format settings, ReFrames   : 9 frames
Codec ID                    : V_MPEG4/ISO/AVC
Duration                    : 24 min 33 s
Bit rate mode               : Variable
Bit rate                    : 3 075 kb/s
Maximum bit rate            : 40.0 Mb/s
Width                       : 1 280 pixels
Height                      : 720 pixels
Display aspect ratio        : 16:9
Frame rate mode             : Constant
Frame rate                  : 23.976 (24000/1001) FPS
Color space                 : YUV
Chroma subsampling          : 4:2:0
Bit depth                   : 8 bits
Scan type                   : Progressive
Bits/(Pixel*Frame)          : 0.139
Stream size                 : 540 MiB (89%)
Default                     : Yes
Forced                      : No
Audio #1
ID                          : 2
Format                      : AAC
Format/Info                 : Advanced Audio Codec
Format profile              : LC
Codec ID                    : A_AAC-2
Duration                    : 24 min 33 s
Bit rate                    : 153 kb/s
Channel(s)                  : 2 channels
Channel positions           : Front: L R
Sampling rate               : 48.0 kHz
Frame rate                  : 46.875 FPS (1024 SPF)
Compression mode            : Lossy
Delay relative to video     : 20 ms
Stream size                 : 26.9 MiB (4%)
Language                    : Russian
Default                     : Yes
Forced                      : No
Audio #2
ID                          : 3
Format                      : AAC
Format/Info                 : Advanced Audio Codec
Format profile              : LC
Codec ID                    : A_AAC-2
Duration                    : 24 min 33 s
Bit rate                    : 169 kb/s
Channel(s)                  : 2 channels
Channel positions           : Front: L R
Sampling rate               : 48.0 kHz
Frame rate                  : 46.875 FPS (1024 SPF)
Compression mode            : Lossy
Delay relative to video     : 20 ms
Stream size                 : 29.6 MiB (5%)
Language                    : English
Default                     : No
Forced                      : No
Text
ID                          : 4
Format                      : PGS
Muxing mode                 : zlib
Codec ID                    : S_HDMV/PGS
Codec ID/Info               : Picture based subtitle format used on BDs/HD-DVDs
Duration                    : 24 min 4 s
Bit rate                    : 112 kb/s
Count of elements           : 1176
Stream size                 : 19.2 MiB (3%)
Language                    : English
Default                     : Yes
Forced                      : No
General
Unique ID                   : 277952215942842126521583976684485483159 (0xD11BA64AD467932F83296DA38B221A97)
Complete name               : D:СкачкаMind.Field.S01-02.2017-2018.RED.WEB-DLRip.720p-VoicePowerS01S01E08 Do You Know Yourself.mkv
Format                      : Matroska
Format version              : Version 4 / Version 2
File size                   : 680 MiB
Duration                    : 25 min 47 s
Overall bit rate mode       : Variable
Overall bit rate            : 3 685 kb/s
Encoded date                : UTC 2018-07-24 16:11:21
Writing application         : mkvmerge v25.0.0 ('Prog Noir') 64-bit
Writing library             : libebml v1.3.6 + libmatroska v1.4.9
Video
ID                          : 1
Format                      : AVC
Format/Info                 : Advanced Video Codec
Format profile              : High@L4.2
Format settings             : CABAC / 9 Ref Frames
Format settings, CABAC      : Yes
Format settings, ReFrames   : 9 frames
Codec ID                    : V_MPEG4/ISO/AVC
Duration                    : 25 min 47 s
Bit rate mode               : Variable
Bit rate                    : 3 328 kb/s
Maximum bit rate            : 40.0 Mb/s
Width                       : 1 280 pixels
Height                      : 720 pixels
Display aspect ratio        : 16:9
Frame rate mode             : Constant
Frame rate                  : 23.976 (24000/1001) FPS
Color space                 : YUV
Chroma subsampling          : 4:2:0
Bit depth                   : 8 bits
Scan type                   : Progressive
Bits/(Pixel*Frame)          : 0.151
Stream size                 : 614 MiB (90%)
Default                     : Yes
Forced                      : No
Audio #1
ID                          : 2
Format                      : AAC
Format/Info                 : Advanced Audio Codec
Format profile              : LC
Codec ID                    : A_AAC-2
Duration                    : 25 min 47 s
Bit rate                    : 149 kb/s
Channel(s)                  : 2 channels
Channel positions           : Front: L R
Sampling rate               : 48.0 kHz
Frame rate                  : 46.875 FPS (1024 SPF)
Compression mode            : Lossy
Delay relative to video     : 20 ms
Stream size                 : 27.6 MiB (4%)
Language                    : Russian
Default                     : Yes
Forced                      : No
Audio #2
ID                          : 3
Format                      : AAC
Format/Info                 : Advanced Audio Codec
Format profile              : LC
Codec ID                    : A_AAC-2
Duration                    : 25 min 47 s
Bit rate                    : 157 kb/s
Channel(s)                  : 2 channels
Channel positions           : Front: L R
Sampling rate               : 48.0 kHz
Frame rate                  : 46.875 FPS (1024 SPF)
Compression mode            : Lossy
Delay relative to video     : 20 ms
Stream size                 : 29.0 MiB (4%)
Language                    : English
Default                     : No
Forced                      : No
Text
ID                          : 4
Format                      : PGS
Muxing mode                 : zlib
Codec ID                    : S_HDMV/PGS
Codec ID/Info               : Picture based subtitle format used on BDs/HD-DVDs
Duration                    : 25 min 15 s
Bit rate                    : 107 kb/s
Count of elements           : 1304
Stream size                 : 19.3 MiB (3%)
Language                    : English
Default                     : Yes
Forced                      : No
General
Unique ID                   : 101394496624345105024524671723790168165 (0x4C47DEA6439FAE4802F4FE6AA2347065)
Complete name               : D:СкачкаMind.Field.S01-02.2017-2018.RED.WEB-DLRip.720p-VoicePowerS02S02E01 The Greater Good.mkv
Format                      : Matroska
Format version              : Version 4 / Version 2
File size                   : 758 MiB
Duration                    : 34 min 37 s
Overall bit rate mode       : Variable
Overall bit rate            : 3 061 kb/s
Encoded date                : UTC 2018-07-24 16:11:46
Writing application         : mkvmerge v25.0.0 ('Prog Noir') 64-bit
Writing library             : libebml v1.3.6 + libmatroska v1.4.9
Video
ID                          : 1
Format                      : AVC
Format/Info                 : Advanced Video Codec
Format profile              : High@L4.2
Format settings             : CABAC / 9 Ref Frames
Format settings, CABAC      : Yes
Format settings, ReFrames   : 9 frames
Codec ID                    : V_MPEG4/ISO/AVC
Duration                    : 34 min 37 s
Bit rate mode               : Variable
Bit rate                    : 2 702 kb/s
Maximum bit rate            : 40.0 Mb/s
Width                       : 1 280 pixels
Height                      : 720 pixels
Display aspect ratio        : 16:9
Frame rate mode             : Constant
Frame rate                  : 23.976 (24000/1001) FPS
Color space                 : YUV
Chroma subsampling          : 4:2:0
Bit depth                   : 8 bits
Scan type                   : Progressive
Bits/(Pixel*Frame)          : 0.122
Stream size                 : 669 MiB (88%)
Default                     : Yes
Forced                      : No
Color range                 : Limited
Color primaries             : BT.2020
Matrix coefficients         : BT.2020 non-constant
Audio #1
ID                          : 2
Format                      : AAC
Format/Info                 : Advanced Audio Codec
Format profile              : LC
Codec ID                    : A_AAC-2
Duration                    : 34 min 37 s
Bit rate                    : 155 kb/s
Channel(s)                  : 2 channels
Channel positions           : Front: L R
Sampling rate               : 48.0 kHz
Frame rate                  : 46.875 FPS (1024 SPF)
Compression mode            : Lossy
Delay relative to video     : 20 ms
Stream size                 : 38.4 MiB (5%)
Language                    : Russian
Default                     : Yes
Forced                      : No
Audio #2
ID                          : 3
Format                      : AAC
Format/Info                 : Advanced Audio Codec
Format profile              : LC
Codec ID                    : A_AAC-2
Duration                    : 34 min 37 s
Bit rate                    : 153 kb/s
Channel(s)                  : 2 channels
Channel positions           : Front: L R
Sampling rate               : 48.0 kHz
Frame rate                  : 46.875 FPS (1024 SPF)
Compression mode            : Lossy
Delay relative to video     : 20 ms
Stream size                 : 37.9 MiB (5%)
Language                    : English
Default                     : No
Forced                      : No
Text
ID                          : 4
Format                      : PGS
Muxing mode                 : zlib
Codec ID                    : S_HDMV/PGS
Codec ID/Info               : Picture based subtitle format used on BDs/HD-DVDs
Duration                    : 33 min 52 s
Bit rate                    : 112 kb/s
Count of elements           : 1546
Stream size                 : 27.2 MiB (4%)
Language                    : English
Default                     : Yes
Forced                      : No
General
Unique ID                   : 60192283821308178984085713738634228177 (0x2D489CB80AA3659B35A3FCBF9F49F1D1)
Complete name               : D:СкачкаMind.Field.S01-02.2017-2018.RED.WEB-DLRip.720p-VoicePowerS02S02E02 The Psychedelic Experience.mkv
Format                      : Matroska
Format version              : Version 4 / Version 2
File size                   : 782 MiB
Duration                    : 33 min 17 s
Overall bit rate mode       : Variable
Overall bit rate            : 3 284 kb/s
Encoded date                : UTC 2018-07-24 16:12:15
Writing application         : mkvmerge v25.0.0 ('Prog Noir') 64-bit
Writing library             : libebml v1.3.6 + libmatroska v1.4.9
Video
ID                          : 1
Format                      : AVC
Format/Info                 : Advanced Video Codec
Format profile              : High@L4.2
Format settings             : CABAC / 9 Ref Frames
Format settings, CABAC      : Yes
Format settings, ReFrames   : 9 frames
Codec ID                    : V_MPEG4/ISO/AVC
Duration                    : 33 min 17 s
Bit rate mode               : Variable
Bit rate                    : 2 910 kb/s
Maximum bit rate            : 40.0 Mb/s
Width                       : 1 280 pixels
Height                      : 720 pixels
Display aspect ratio        : 16:9
Frame rate mode             : Constant
Frame rate                  : 23.976 (24000/1001) FPS
Color space                 : YUV
Chroma subsampling          : 4:2:0
Bit depth                   : 8 bits
Scan type                   : Progressive
Bits/(Pixel*Frame)          : 0.132
Stream size                 : 693 MiB (89%)
Default                     : Yes
Forced                      : No
Color range                 : Limited
Color primaries             : BT.2020
Matrix coefficients         : BT.2020 non-constant
Audio #1
ID                          : 2
Format                      : AAC
Format/Info                 : Advanced Audio Codec
Format profile              : LC
Codec ID                    : A_AAC-2
Duration                    : 33 min 17 s
Bit rate                    : 161 kb/s
Channel(s)                  : 2 channels
Channel positions           : Front: L R
Sampling rate               : 48.0 kHz
Frame rate                  : 46.875 FPS (1024 SPF)
Compression mode            : Lossy
Delay relative to video     : 20 ms
Stream size                 : 38.4 MiB (5%)
Language                    : Russian
Default                     : Yes
Forced                      : No
Audio #2
ID                          : 3
Format                      : AAC
Format/Info                 : Advanced Audio Codec
Format profile              : LC
Codec ID                    : A_AAC-2
Duration                    : 33 min 17 s
Bit rate                    : 169 kb/s
Channel(s)                  : 2 channels
Channel positions           : Front: L R
Sampling rate               : 48.0 kHz
Frame rate                  : 46.875 FPS (1024 SPF)
Compression mode            : Lossy
Delay relative to video     : 20 ms
Stream size                 : 40.2 MiB (5%)
Language                    : English
Default                     : No
Forced                      : No
Text
ID                          : 4
Format                      : PGS
Muxing mode                 : zlib
Codec ID                    : S_HDMV/PGS
Codec ID/Info               : Picture based subtitle format used on BDs/HD-DVDs
Duration                    : 32 min 18 s
Bit rate                    : 94.3 kb/s
Count of elements           : 1220
Stream size                 : 21.8 MiB (3%)
Language                    : English
Default                     : Yes
Forced                      : No
General
Unique ID                   : 287851966174649782475135133909451505456 (0xD88E45A9B2EC35A2B8A350471A437F30)
Complete name               : D:СкачкаMind.Field.S01-02.2017-2018.RED.WEB-DLRip.720p-VoicePowerS02S02E03 Interrogation.mkv
Format                      : Matroska
Format version              : Version 4 / Version 2
File size                   : 526 MiB
Duration                    : 32 min 6 s
Overall bit rate mode       : Variable
Overall bit rate            : 2 289 kb/s
Encoded date                : UTC 2018-07-24 16:12:48
Writing application         : mkvmerge v25.0.0 ('Prog Noir') 64-bit
Writing library             : libebml v1.3.6 + libmatroska v1.4.9
Video
ID                          : 1
Format                      : AVC
Format/Info                 : Advanced Video Codec
Format profile              : High@L4.2
Format settings             : CABAC / 9 Ref Frames
Format settings, CABAC      : Yes
Format settings, ReFrames   : 9 frames
Codec ID                    : V_MPEG4/ISO/AVC
Duration                    : 32 min 6 s
Bit rate mode               : Variable
Bit rate                    : 1 914 kb/s
Maximum bit rate            : 40.0 Mb/s
Width                       : 1 280 pixels
Height                      : 720 pixels
Display aspect ratio        : 16:9
Frame rate mode             : Constant
Frame rate                  : 23.976 (24000/1001) FPS
Color space                 : YUV
Chroma subsampling          : 4:2:0
Bit depth                   : 8 bits
Scan type                   : Progressive
Bits/(Pixel*Frame)          : 0.087
Stream size                 : 440 MiB (84%)
Default                     : Yes
Forced                      : No
Color range                 : Limited
Color primaries             : BT.2020
Matrix coefficients         : BT.2020 non-constant
Audio #1
ID                          : 2
Format                      : AAC
Format/Info                 : Advanced Audio Codec
Format profile              : LC
Codec ID                    : A_AAC-2
Duration                    : 32 min 6 s
Bit rate                    : 159 kb/s
Channel(s)                  : 2 channels
Channel positions           : Front: L R
Sampling rate               : 48.0 kHz
Frame rate                  : 46.875 FPS (1024 SPF)
Compression mode            : Lossy
Delay relative to video     : 20 ms
Stream size                 : 36.4 MiB (7%)
Language                    : Russian
Default                     : Yes
Forced                      : No
Audio #2
ID                          : 3
Format                      : AAC
Format/Info                 : Advanced Audio Codec
Format profile              : LC
Codec ID                    : A_AAC-2
Duration                    : 32 min 6 s
Bit rate                    : 164 kb/s
Channel(s)                  : 2 channels
Channel positions           : Front: L R
Sampling rate               : 48.0 kHz
Frame rate                  : 46.875 FPS (1024 SPF)
Compression mode            : Lossy
Delay relative to video     : 20 ms
Stream size                 : 37.6 MiB (7%)
Language                    : English
Default                     : No
Forced                      : No
Text
ID                          : 4
Format                      : PGS
Muxing mode                 : zlib
Codec ID                    : S_HDMV/PGS
Codec ID/Info               : Picture based subtitle format used on BDs/HD-DVDs
Duration                    : 31 min 28 s
Bit rate                    : 113 kb/s
Count of elements           : 1656
Stream size                 : 25.5 MiB (5%)
Language                    : English
Default                     : Yes
Forced                      : No
General
Unique ID                   : 74877453512832105549430218068347616725 (0x3854DF7C23F3509FC8DCDFFC8CE47DD5)
Complete name               : D:СкачкаMind.Field.S01-02.2017-2018.RED.WEB-DLRip.720p-VoicePowerS02S02E04 Your Brain on Tech.mkv
Format                      : Matroska
Format version              : Version 4 / Version 2
File size                   : 509 MiB
Duration                    : 27 min 30 s
Overall bit rate mode       : Variable
Overall bit rate            : 2 585 kb/s
Encoded date                : UTC 2018-07-24 16:13:15
Writing application         : mkvmerge v25.0.0 ('Prog Noir') 64-bit
Writing library             : libebml v1.3.6 + libmatroska v1.4.9
Video
ID                          : 1
Format                      : AVC
Format/Info                 : Advanced Video Codec
Format profile              : High@L4.2
Format settings             : CABAC / 9 Ref Frames
Format settings, CABAC      : Yes
Format settings, ReFrames   : 9 frames
Codec ID                    : V_MPEG4/ISO/AVC
Duration                    : 27 min 30 s
Bit rate mode               : Variable
Bit rate                    : 2 216 kb/s
Maximum bit rate            : 40.0 Mb/s
Width                       : 1 280 pixels
Height                      : 720 pixels
Display aspect ratio        : 16:9
Frame rate mode             : Constant
Frame rate                  : 23.976 (24000/1001) FPS
Color space                 : YUV
Chroma subsampling          : 4:2:0
Bit depth                   : 8 bits
Scan type                   : Progressive
Bits/(Pixel*Frame)          : 0.100
Stream size                 : 436 MiB (86%)
Default                     : Yes
Forced                      : No
Color range                 : Limited
Color primaries             : BT.2020
Matrix coefficients         : BT.2020 non-constant
Audio #1
ID                          : 2
Format                      : AAC
Format/Info                 : Advanced Audio Codec
Format profile              : LC
Codec ID                    : A_AAC-2
Duration                    : 27 min 30 s
Bit rate                    : 155 kb/s
Channel(s)                  : 2 channels
Channel positions           : Front: L R
Sampling rate               : 48.0 kHz
Frame rate                  : 46.875 FPS (1024 SPF)
Compression mode            : Lossy
Delay relative to video     : 20 ms
Stream size                 : 30.5 MiB (6%)
Language                    : Russian
Default                     : Yes
Forced                      : No
Audio #2
ID                          : 3
Format                      : AAC
Format/Info                 : Advanced Audio Codec
Format profile              : LC
Codec ID                    : A_AAC-2
Duration                    : 27 min 30 s
Bit rate                    : 160 kb/s
Channel(s)                  : 2 channels
Channel positions           : Front: L R
Sampling rate               : 48.0 kHz
Frame rate                  : 46.875 FPS (1024 SPF)
Compression mode            : Lossy
Delay relative to video     : 20 ms
Stream size                 : 31.5 MiB (6%)
Language                    : English
Default                     : No
Forced                      : No
Text
ID                          : 4
Format                      : PGS
Muxing mode                 : zlib
Codec ID                    : S_HDMV/PGS
Codec ID/Info               : Picture based subtitle format used on BDs/HD-DVDs
Duration                    : 26 min 49 s
Bit rate                    : 117 kb/s
Count of elements           : 1434
Stream size                 : 22.5 MiB (4%)
Language                    : English
Default                     : Yes
Forced                      : No
General
Unique ID                   : 63596049252714101762440974429060585574 (0x2FD8274FB62C91902BBB767EE5F7D866)
Complete name               : D:СкачкаMind.Field.S01-02.2017-2018.RED.WEB-DLRip.720p-VoicePowerS02S02E05 How to Make a Hero.mkv
Format                      : Matroska
Format version              : Version 4 / Version 2
File size                   : 498 MiB
Duration                    : 30 min 15 s
Overall bit rate mode       : Variable
Overall bit rate            : 2 302 kb/s
Encoded date                : UTC 2018-07-24 16:13:51
Writing application         : mkvmerge v25.0.0 ('Prog Noir') 64-bit
Writing library             : libebml v1.3.6 + libmatroska v1.4.9
Video
ID                          : 1
Format                      : AVC
Format/Info                 : Advanced Video Codec
Format profile              : High@L4.2
Format settings             : CABAC / 9 Ref Frames
Format settings, CABAC      : Yes
Format settings, ReFrames   : 9 frames
Codec ID                    : V_MPEG4/ISO/AVC
Duration                    : 30 min 15 s
Bit rate mode               : Variable
Bit rate                    : 1 945 kb/s
Maximum bit rate            : 40.0 Mb/s
Width                       : 1 280 pixels
Height                      : 720 pixels
Display aspect ratio        : 16:9
Frame rate mode             : Constant
Frame rate                  : 23.976 (24000/1001) FPS
Color space                 : YUV
Chroma subsampling          : 4:2:0
Bit depth                   : 8 bits
Scan type                   : Progressive
Bits/(Pixel*Frame)          : 0.088
Stream size                 : 421 MiB (84%)
Default                     : Yes
Forced                      : No
Color range                 : Limited
Color primaries             : BT.2020
Matrix coefficients         : BT.2020 non-constant
Audio #1
ID                          : 2
Format                      : AAC
Format/Info                 : Advanced Audio Codec
Format profile              : LC
Codec ID                    : A_AAC-2
Duration                    : 30 min 15 s
Bit rate                    : 150 kb/s
Channel(s)                  : 2 channels
Channel positions           : Front: L R
Sampling rate               : 48.0 kHz
Frame rate                  : 46.875 FPS (1024 SPF)
Compression mode            : Lossy
Delay relative to video     : 20 ms
Stream size                 : 32.5 MiB (7%)
Language                    : Russian
Default                     : Yes
Forced                      : No
Audio #2
ID                          : 3
Format                      : AAC
Format/Info                 : Advanced Audio Codec
Format profile              : LC
Codec ID                    : A_AAC-2
Duration                    : 30 min 15 s
Bit rate                    : 154 kb/s
Channel(s)                  : 2 channels
Channel positions           : Front: L R
Sampling rate               : 48.0 kHz
Frame rate                  : 46.875 FPS (1024 SPF)
Compression mode            : Lossy
Delay relative to video     : 20 ms
Stream size                 : 33.3 MiB (7%)
Language                    : English
Default                     : No
Forced                      : No
Text
ID                          : 4
Format                      : PGS
Muxing mode                 : zlib
Codec ID                    : S_HDMV/PGS
Codec ID/Info               : Picture based subtitle format used on BDs/HD-DVDs
Duration                    : 29 min 37 s
Bit rate                    : 116 kb/s
Count of elements           : 1528
Stream size                 : 24.6 MiB (5%)
Language                    : English
Default                     : Yes
Forced                      : No
General
Unique ID                   : 323029802581983244384610862592524761762 (0xF30546E7A6A8803AF9B02E3C1F833AA2)
Complete name               : D:СкачкаMind.Field.S01-02.2017-2018.RED.WEB-DLRip.720p-VoicePowerS02S02E06 The Power of Suggestion.mkv
Format                      : Matroska
Format version              : Version 4 / Version 2
File size                   : 594 MiB
Duration                    : 28 min 48 s
Overall bit rate mode       : Variable
Overall bit rate            : 2 885 kb/s
Encoded date                : UTC 2018-07-24 16:14:21
Writing application         : mkvmerge v25.0.0 ('Prog Noir') 64-bit
Writing library             : libebml v1.3.6 + libmatroska v1.4.9
Video
ID                          : 1
Format                      : AVC
Format/Info                 : Advanced Video Codec
Format profile              : High@L4.2
Format settings             : CABAC / 9 Ref Frames
Format settings, CABAC      : Yes
Format settings, ReFrames   : 9 frames
Codec ID                    : V_MPEG4/ISO/AVC
Duration                    : 28 min 48 s
Bit rate mode               : Variable
Bit rate                    : 2 502 kb/s
Maximum bit rate            : 40.0 Mb/s
Width                       : 1 280 pixels
Height                      : 720 pixels
Display aspect ratio        : 16:9
Frame rate mode             : Constant
Frame rate                  : 23.976 (24000/1001) FPS
Color space                 : YUV
Chroma subsampling          : 4:2:0
Bit depth                   : 8 bits
Scan type                   : Progressive
Bits/(Pixel*Frame)          : 0.113
Stream size                 : 516 MiB (87%)
Default                     : Yes
Forced                      : No
Color range                 : Limited
Color primaries             : BT.2020
Matrix coefficients         : BT.2020 non-constant
Audio #1
ID                          : 2
Format                      : AAC
Format/Info                 : Advanced Audio Codec
Format profile              : LC
Codec ID                    : A_AAC-2
Duration                    : 28 min 48 s
Bit rate                    : 160 kb/s
Channel(s)                  : 2 channels
Channel positions           : Front: L R
Sampling rate               : 48.0 kHz
Frame rate                  : 46.875 FPS (1024 SPF)
Compression mode            : Lossy
Delay relative to video     : 20 ms
Stream size                 : 33.0 MiB (6%)
Language                    : Russian
Default                     : Yes
Forced                      : No
Audio #2
ID                          : 3
Format                      : AAC
Format/Info                 : Advanced Audio Codec
Format profile              : LC
Codec ID                    : A_AAC-2
Duration                    : 28 min 48 s
Bit rate                    : 171 kb/s
Channel(s)                  : 2 channels
Channel positions           : Front: L R
Sampling rate               : 48.0 kHz
Frame rate                  : 46.875 FPS (1024 SPF)
Compression mode            : Lossy
Delay relative to video     : 20 ms
Stream size                 : 35.3 MiB (6%)
Language                    : English
Default                     : No
Forced                      : No
Text
ID                          : 4
Format                      : PGS
Muxing mode                 : zlib
Codec ID                    : S_HDMV/PGS
Codec ID/Info               : Picture based subtitle format used on BDs/HD-DVDs
Duration                    : 28 min 9 s
Bit rate                    : 113 kb/s
Count of elements           : 1420
Stream size                 : 22.7 MiB (4%)
Language                    : English
Default                     : Yes
Forced                      : No
General
Unique ID                   : 250964534499276371247474506741163615145 (0xBCCE02DDD0C4E014A3E83B4965F1E3A9)
Complete name               : D:СкачкаMind.Field.S01-02.2017-2018.RED.WEB-DLRip.720p-VoicePowerS02S02E07 Divergent Minds.mkv
Format                      : Matroska
Format version              : Version 4 / Version 2
File size                   : 505 MiB
Duration                    : 26 min 12 s
Overall bit rate mode       : Variable
Overall bit rate            : 2 697 kb/s
Encoded date                : UTC 2018-07-24 16:14:45
Writing application         : mkvmerge v25.0.0 ('Prog Noir') 64-bit
Writing library             : libebml v1.3.6 + libmatroska v1.4.9
Video
ID                          : 1
Format                      : AVC
Format/Info                 : Advanced Video Codec
Format profile              : High@L4.2
Format settings             : CABAC / 9 Ref Frames
Format settings, CABAC      : Yes
Format settings, ReFrames   : 9 frames
Codec ID                    : V_MPEG4/ISO/AVC
Duration                    : 26 min 12 s
Bit rate mode               : Variable
Bit rate                    : 2 353 kb/s
Maximum bit rate            : 40.0 Mb/s
Width                       : 1 280 pixels
Height                      : 720 pixels
Display aspect ratio        : 16:9
Frame rate mode             : Constant
Frame rate                  : 23.976 (24000/1001) FPS
Color space                 : YUV
Chroma subsampling          : 4:2:0
Bit depth                   : 8 bits
Scan type                   : Progressive
Bits/(Pixel*Frame)          : 0.107
Stream size                 : 441 MiB (87%)
Default                     : Yes
Forced                      : No
Color range                 : Limited
Color primaries             : BT.2020
Matrix coefficients         : BT.2020 non-constant
Audio #1
ID                          : 2
Format                      : AAC
Format/Info                 : Advanced Audio Codec
Format profile              : LC
Codec ID                    : A_AAC-2
Duration                    : 26 min 12 s
Bit rate                    : 147 kb/s
Channel(s)                  : 2 channels
Channel positions           : Front: L R
Sampling rate               : 48.0 kHz
Frame rate                  : 46.875 FPS (1024 SPF)
Compression mode            : Lossy
Delay relative to video     : 20 ms
Stream size                 : 27.6 MiB (5%)
Language                    : Russian
Default                     : Yes
Forced                      : No
Audio #2
ID                          : 3
Format                      : AAC
Format/Info                 : Advanced Audio Codec
Format profile              : LC
Codec ID                    : A_AAC-2
Duration                    : 26 min 12 s
Bit rate                    : 144 kb/s
Channel(s)                  : 2 channels
Channel positions           : Front: L R
Sampling rate               : 48.0 kHz
Frame rate                  : 46.875 FPS (1024 SPF)
Compression mode            : Lossy
Delay relative to video     : 20 ms
Stream size                 : 27.2 MiB (5%)
Language                    : English
Default                     : No
Forced                      : No
Text
ID                          : 4
Format                      : PGS
Muxing mode                 : zlib
Codec ID                    : S_HDMV/PGS
Codec ID/Info               : Picture based subtitle format used on BDs/HD-DVDs
Duration                    : 25 min 47 s
Bit rate                    : 111 kb/s
Count of elements           : 1256
Stream size                 : 20.5 MiB (4%)
Language                    : English
Default                     : Yes
Forced                      : No
General
Unique ID                   : 113430072922900780450110034995495244953 (0x5555D660157BAA76EB06E470F4A31499)
Complete name               : D:СкачкаMind.Field.S01-02.2017-2018.RED.WEB-DLRip.720p-VoicePowerS02S02E08 The Electric Brain.mkv
Format                      : Matroska
Format version              : Version 4 / Version 2
File size                   : 529 MiB
Duration                    : 27 min 43 s
Overall bit rate mode       : Variable
Overall bit rate            : 2 670 kb/s
Encoded date                : UTC 2018-07-24 16:15:07
Writing application         : mkvmerge v25.0.0 ('Prog Noir') 64-bit
Writing library             : libebml v1.3.6 + libmatroska v1.4.9
Video
ID                          : 1
Format                      : AVC
Format/Info                 : Advanced Video Codec
Format profile              : High@L4.2
Format settings             : CABAC / 9 Ref Frames
Format settings, CABAC      : Yes
Format settings, ReFrames   : 9 frames
Codec ID                    : V_MPEG4/ISO/AVC
Duration                    : 27 min 43 s
Bit rate mode               : Variable
Bit rate                    : 2 292 kb/s
Maximum bit rate            : 40.0 Mb/s
Width                       : 1 280 pixels
Height                      : 720 pixels
Display aspect ratio        : 16:9
Frame rate mode             : Constant
Frame rate                  : 23.976 (24000/1001) FPS
Color space                 : YUV
Chroma subsampling          : 4:2:0
Bit depth                   : 8 bits
Scan type                   : Progressive
Bits/(Pixel*Frame)          : 0.104
Stream size                 : 454 MiB (86%)
Default                     : Yes
Forced                      : No
Color range                 : Limited
Color primaries             : BT.2020
Matrix coefficients         : BT.2020 non-constant
Audio #1
ID                          : 2
Format                      : AAC
Format/Info                 : Advanced Audio Codec
Format profile              : LC
Codec ID                    : A_AAC-2
Duration                    : 27 min 43 s
Bit rate                    : 158 kb/s
Channel(s)                  : 2 channels
Channel positions           : Front: L R
Sampling rate               : 48.0 kHz
Frame rate                  : 46.875 FPS (1024 SPF)
Compression mode            : Lossy
Delay relative to video     : 20 ms
Stream size                 : 31.3 MiB (6%)
Language                    : Russian
Default                     : Yes
Forced                      : No
Audio #2
ID                          : 3
Format                      : AAC
Format/Info                 : Advanced Audio Codec
Format profile              : LC
Codec ID                    : A_AAC-2
Duration                    : 27 min 43 s
Bit rate                    : 166 kb/s
Channel(s)                  : 2 channels
Channel positions           : Front: L R
Sampling rate               : 48.0 kHz
Frame rate                  : 46.875 FPS (1024 SPF)
Compression mode            : Lossy
Delay relative to video     : 20 ms
Stream size                 : 32.8 MiB (6%)
Language                    : English
Default                     : No
Forced                      : No
Text
ID                          : 4
Format                      : PGS
Muxing mode                 : zlib
Codec ID                    : S_HDMV/PGS
Codec ID/Info               : Picture based subtitle format used on BDs/HD-DVDs
Duration                    : 27 min 5 s
Bit rate                    : 120 kb/s
Count of elements           : 1496
Stream size                 : 23.3 MiB (4%)
Language                    : English
Default                     : Yes
Forced                      : No
 




   Похожие торренты   Торрент   Размер 
В этой теме нет новых непрочитанных сообщений. Луковое поле / The Onion Field (1979) BDRip 720p

94 | 24

5.01 ГБ

В этой теме нет новых непрочитанных сообщений. Багряное поле / The Crimson Field [S01] (2014) HDTVRip 720p ViruseProject

86 | 30

5.9 ГБ

В этой теме нет новых непрочитанных сообщений. Игры разума / A Beautiful Mind (2001) BDRip 720p от NNNB | D, P, A

8 | 0

10.48 ГБ

В этой теме нет новых непрочитанных сообщений. Морпехи 2 : Поле Огня / Jarhead 2: Field of Fire (2014) BDRip 720p | L1

761 | 107

3.82 ГБ

В этой теме нет новых непрочитанных сообщений. Игры разума / A Beautiful Mind (2001) BDRip 720p от KinoGadget | iPad | D

38 | 5

2.16 ГБ

В этой теме нет новых непрочитанных сообщений. Морпехи 2: Поле Огня / Jarhead 2: Field of Fire (2014) BDRip 720p | Лицензия

425 | 26

3.77 ГБ

В этой теме нет новых непрочитанных сообщений. Поле / The Field (1990) HDTVRip | P

6 | 3

1.46 ГБ




Вы не можете начинать темы
Вы не можете отвечать на сообщения
Вы не можете редактировать свои сообщения
Вы не можете удалять свои сообщения
Вы не можете добавлять вложения

Перейти:  
 Вход
ppkBB3cker v.2 © 2008-2014 @ PPK
[ Time : 0.029s | 16 Queries | GZIP : Off ]

cron