img image001 image001 image001 image001 image001 image001 image001 image001 image001 image001 image001 image001 image001 image001 image001 image001

Planets Sun Sun Sun
Статистика раздачи
Автор: Снежана | Размер: 14.17 ГБ | Добавлен: 14 авг 2018
Раздают: 0    Качают: 0
Скачать торрент
Скачать торрент
Описание торрента

СообщениеДобавлено: 14 авг 2018 

Информация о фильме
Название: Древние пришельцы
Оригинальное название: Ancient Aliens
Год выпуска: 2018
Жанр: Документальный, научно-популярный, уфология
Режиссер: Кевин Барнс, Дэвид Сильвер
В ролях: Уильям Джей. Бернс, Линда Молтон Хоу, Роберт Клотуорти, Джордж Нури, Джонатан Янг, Луис Навия, Бэрри Доунинг, Эрих фон Дэникен, Майкл Кремо, Дэвид Чайлдресс
О фильме:
Возможно ли, что разумные формы жизни посетили Землю тысячи лет назад, принеся с собой технологии кардинально повлиявшие на ход истории и развития человечества? Теория "древних пришельцев", опубликованная в 1968 году в бестселлере Эриха фон Деникена "Колесницы богов", пошатнула представления людей об общеизвестном прогрессе человечества. Древние пещерные рисунки странных существ, остатки взлетно-посадочных полос в Перу, индийские тексты, описывающие "летающие машины богов"... вот лишь некоторые необычные археологические артефакты на которые ссылается Деникен в качестве доказательств того, что "древние астронавты" были хорошо известны нашим предкам.

Страна: США
Студия: Prometheus Entertainment, A&E Television Networks, LLC., History Channel
Продолжительность: 10 x ~ 00:44:00
Перевод: Любительский многоголосый [ColdFilm]
Файл
Кодек: x264 (AVC)
Качество: HDTVRip 720p
Видео: 1280x720, 4000 Кбит/с, 25.000 fps
Звук: 48 kHz,AC3 , 2/0 (L,R) ch, ~192 kbps


General
Unique ID : 118143765218039424855769637329311190922 (0x58E1A95937CAEFC9B28EDBD7E2754F8A)
Complete name : Ancient.Aliens.S13E01.720p.ColdFilm.mkv
Format : Matroska
Format version : Version 2
File size : 2.52 GiB
Duration : 1 h 25 min
Overall bit rate : 4 198 kb/s
Encoded date : UTC 2017-11-20 18:25:40 / UTC 2017-11-20 18:25:40
Writing application : Lavf54.63.104
Writing library : Lavf54.63.104
Video
ID : 1
Format : AVC
Format/Info : Advanced Video Codec
Format profile : Main@L3.1
Format settings : CABAC / 1 Ref Frames
Format settings, CABAC : Yes
Format settings, ReFrames : 1 frame
Codec ID : V_MPEG4/ISO/AVC
Duration : 1 h 25 min
Bit rate : 4 000 kb/s
Width : 1 280 pixels
Height : 720 pixels
Display aspect ratio : 16:9
Frame rate mode : Constant
Frame rate : 25.000 FPS
Color space : YUV
Chroma subsampling : 4:2:0
Bit depth : 8 bits
Scan type : Progressive
Bits/(Pixel*Frame) : 0.174
Stream size : 2.35 GiB (93%)
Writing library : x264 core 129
Default : Yes
Forced : No
Audio
ID : 2
Format : AC-3
Format/Info : Audio Coding 3
Codec ID : A_AC3
Duration : 1 h 25 min
Bit rate mode : Constant
Bit rate : 192 kb/s
Channel(s) : 2 channels
Channel positions : Front: L R
Sampling rate : 44.1 kHz
Frame rate : 28.711 FPS (1536 SPF)
Bit depth : 16 bits
Compression mode : Lossy
Stream size : 118 MiB (5%)
Service kind : Complete Main
Default : Yes
Forced : No

Релиз от:



   Похожие торренты   Торрент   Размер 
В этой теме нет новых непрочитанных сообщений. Древние пришельцы / Ancient Aliens [13x01-07 из 13] (2018) HDTVRip 720p | ColdFilm

0 | 0

10.77 ГБ

В этой теме нет новых непрочитанных сообщений. Древние пришельцы / Ancient Aliens [13x01-08 из 13] (2018) HDTVRip 720p | ColdFilm

0 | 0

11.86 ГБ

В этой теме нет новых непрочитанных сообщений. Древние пришельцы / Ancient Aliens [13x01-08 из 13] (2018) HDTVRip | ColdFilm

0 | 0

5.13 ГБ

В этой теме нет новых непрочитанных сообщений. Древние пришельцы / Ancient Aliens [13x01-07 из 13] (2018) HDTVRip | ColdFilm

0 | 0

4.58 ГБ

В этой теме нет новых непрочитанных сообщений. Древние пришельцы / Ancient Aliens [13x01-10 из 13] (2018) HDTVRip | ColdFilm

0 | 0

6.17 ГБ

В этой теме нет новых непрочитанных сообщений. Древние пришельцы / Ancient Aliens [13х01-06 из 15] (2018) HDTVRip | NEON Studio

14 | 2

3.53 ГБ

В этой теме нет новых непрочитанных сообщений. Древние пришельцы / Ancient Aliens [13х01-06 из 15] (2018) HDTVRip 720р | NEON Studio

30 | 7

8.7 ГБ




Вы не можете начинать темы
Вы не можете отвечать на сообщения
Вы не можете редактировать свои сообщения
Вы не можете удалять свои сообщения
Вы не можете добавлять вложения

Перейти:  
 Вход
ppkBB3cker v.2 © 2008-2014 @ PPK
[ Time : 0.034s | 15 Queries | GZIP : Off ]

cron