img image001 image001 image001 image001 image001 image001 image001 image001 image001 image001 image001 image001 image001 image001 image001

Planets Sun Sun Sun
Статистика раздачи
Автор: Снежана | Размер: 2.61 ГБ | Добавлен: 19 июн 2020
Раздают: 7    Качают: 2
Скачать торрент
Скачать торрент
Описание торрента

СообщениеДобавлено: 19 июн 2020 

Информация о фильме
Название: Когда крокодилы ели динозавров
Оригинальное название: When crocs ate dinosaurs
Год выхода: 2009
Жанр: Документальный, научно-популярный
Режиссер: Дженни Кубо

О фильме:
Палеонтолог Пол Серено расскажет всё о невероятном доисторическом хищнике - гигантском древнем крокодиле.
Страна: Великобритания
Студия: National Geographic Television
Продолжительность: 00:46:56
Перевод: Профессиональный (одноголосый закадровый) АРК-ТВ

Файл
Кодек: AVC/H.264
Качество: HDTV 1080i
Видео: 1920x1080 (16:9), 25 fps, AVC (H.264), High@L4, 7357 kbps, 0.142 bit/pixel
Звук: Русский 48.0 KHz, AC3 6 ch, ~448.00 kbps avg

Семпл

Complete name : L:ФильмыДокументальныеКогда крокодилы ели динозавров.mkv
Format : Matroska
Format version : Version 4
File size : 2.61 GiB
Duration : 46 min 56 s
Overall bit rate : 7 964 kb/s
Encoded date : UTC 2014-01-05 10:19:12
Writing application : mkvmerge v6.6.0 ('The Edge Of The In Between') built on Dec 1 2013 17:55:00
Writing library : libebml v1.3.0 + libmatroska v1.4.1

Video
ID : 1
Format : AVC
Format/Info : Advanced Video Codec
Format profile : High@L4
Format settings : CABAC / 3 Ref Frames
Format settings, CABAC : Yes
Format settings, Reference : 3 frames
Codec ID : V_MPEG4/ISO/AVC
Duration : 46 min 56 s
Bit rate : 7 357 kb/s
Width : 1 920 pixels
Height : 1 080 pixels
Display aspect ratio : 16:9
Frame rate mode : Constant
Frame rate : 25.000 FPS
Standard : Component
Color space : YUV
Chroma subsampling : 4:2:0
Bit depth : 8 bits
Scan type : Interlaced
Scan type, store method : Separated fields
Scan order : Top Field First
Bits/(Pixel*Frame) : 0.142
Stream size : 2.41 GiB (92%)
Default : Yes
Forced : No
Color range : Limited
Color primaries : BT.709
Transfer characteristics : BT.709
Matrix coefficients : BT.709

Audio
ID : 2
Format : AC-3
Format/Info : Audio Coding 3
Commercial name : Dolby Digital
Codec ID : A_AC3
Duration : 46 min 56 s
Bit rate mode : Constant
Bit rate : 448 kb/s
Channel(s) : 6 channels
Channel layout : L R C LFE Ls Rs
Sampling rate : 48.0 kHz
Frame rate : 31.250 FPS (1536 SPF)
Bit depth : 16 bits
Compression mode : Lossy
Stream size : 150 MiB (6%)
Language : Russian
Service kind : Complete Main
Default : Yes
Forced : No


Релиз от: kyba

   Похожие торренты   Торрент   Размер 
В этой теме нет новых непрочитанных сообщений. National Geographic: В поисках динозавров на Аляске / Hunting Alaskan Dinosaurs (2022) HDTVRip 720p | P1

0 | 0

1.33 ГБ

В этой теме нет новых непрочитанных сообщений. Nat Geo Wild: Самые опасные крокодилы мира / World's Deadliest Crocs (2019) HDTV 1080i | P1

0 | 0

2.17 ГБ

В этой теме нет новых непрочитанных сообщений. Авто S.O.S. (3 сезон, 1-7 серии из 10) / National Geographic. Car S.O.S. (National Geographic Channels) [2015, документальный, телепередача, реалити-шоу, HDTV 1080i] VO

0 | 3

20.31 ГБ

В этой теме нет новых непрочитанных сообщений. Авто S.O.S. (2 сезон, 1-9 серии из 10) / National Geographic. Car S.O.S. (National Geographic Channels) [2014, документальный, телепередача, реалити-шоу, HDTV 1080i] VO

0 | 2

26.02 ГБ

В этой теме нет новых непрочитанных сообщений. Человек-медведь / National Geographic. A Man Among Bears (Доминик Френч) [2008, документальный, HDTV 1080i] DUB / Blu-Ray / BDRip / HDTV

0 | 0

2.69 ГБ

В этой теме нет новых непрочитанных сообщений. Ледниковый период 3: Эра динозавров / Ice Age 3: Dawn of the Dinosaurs (2009) PC | RePack от Yaroslav98

0 | 0

2.37 ГБ

В этой теме нет новых непрочитанных сообщений. National Geographic: От колыбели до могилы / Cradle to Grave (2016) HDTV 1080i | P

21 | 4

3.98 ГБ




Вы не можете начинать темы
Вы не можете отвечать на сообщения
Вы не можете редактировать свои сообщения
Вы не можете удалять свои сообщения
Вы не можете добавлять вложения

Перейти:  
Контактная информация: rstracker[пёсик]yandex.ru
 Вход
ppkBB3cker v.2 © 2008-2014 @ PPK
[ Time : 0.033s | 20 Queries | GZIP : Off ]

cron