img image001 image001 image001 image001 image001 image001 image001 image001 image001 image001 image001 image001 image001 image001 image001

Planets Sun Sun Sun
Статистика раздачи
Автор: PriZraK | Размер: 2.21 ГБ | Добавлен: 27 мар 2022
Раздают: 1    Качают: 0
Скачать торрент
Скачать торрент
Описание торрента

СообщениеДобавлено: 27 мар 2022 

Информация о фильме
Название: Затерянная пирамида Египта
Оригинальное название: Egypt's Lost Pyramid
Год выхода: 2019
Жанр: Документальный, археология, история, египтология
Режиссер: Стюарт Эллиотт

О фильме:
В пустынях на севере Египта было сделано потрясающее открытие: пирамида с запечатанной погребальной камерой. Ее содержимое оказалось потревоженным, но признаки проникновения отсутствовали...
Страна: Франция
Студия: Lion Television
Продолжительность: ~ 00:46:38
Перевод: Профессиональный (одноголосый закадровый) SDI Media

Файл
Кодек: AVC/H.264
Качество: HDTV 1080i
Видео: 1920x1080 (16:9), AVC (H.264), High@L4, 6167 kbps, 25fps, 0.119 bit/pixel
Звук:
Русский 48 kHz, MPEG Layer 2, 2 ch, ~160.00 kbps avg
Английский 48 kHz, MPEG Layer 2, 2 ch, ~128.00 kbps avg

Семпл

Complete name : F:НаладкиЗатерянная пирамида Египта.ts
Format : MPEG-TS
File size : 2.21 GiB
Duration : 46 min 38 s
Overall bit rate mode : Variable
Overall bit rate : 6 793 kb/s

Video
ID : 305 (0x131)
Menu ID : 17105 (0x42D1)
Format : AVC
Format/Info : Advanced Video Codec
Format profile : High@L4
Format settings : CABAC / 4 Ref Frames
Format settings, CABAC : Yes
Format settings, Reference : 4 frames
Codec ID : 27
Duration : 46 min 38 s
Bit rate : 6 167 kb/s
Width : 1 920 pixels
Height : 1 080 pixels
Display aspect ratio : 16:9
Frame rate : 25.000 FPS
Standard : Component
Color space : YUV
Chroma subsampling : 4:2:0
Bit depth : 8 bits
Scan type : Interlaced
Scan type, store method : Separated fields
Scan order : Top Field First
Bits/(Pixel*Frame) : 0.119
Stream size : 2.01 GiB (91%)
Color range : Limited
Color primaries : BT.709
Transfer characteristics : BT.709
Matrix coefficients : BT.709

Audio #1
ID : 405 (0x195)
Menu ID : 17105 (0x42D1)
Format : MPEG Audio
Format version : Version 1
Format profile : Layer 2
Codec ID : 3
Duration : 46 min 38 s
Bit rate mode : Constant
Bit rate : 160 kb/s
Channel(s) : 2 channels
Sampling rate : 48.0 kHz
Frame rate : 41.667 FPS (1152 SPF)
Compression mode : Lossy
Stream size : 53.4 MiB (2%)
Language : Russian

Audio #2
ID : 425 (0x1A9)
Menu ID : 17105 (0x42D1)
Format : MPEG Audio
Format version : Version 1
Format profile : Layer 2
Codec ID : 3
Duration : 46 min 38 s
Bit rate mode : Constant
Bit rate : 128 kb/s
Channel(s) : 2 channels
Sampling rate : 48.0 kHz
Frame rate : 41.667 FPS (1152 SPF)
Compression mode : Lossy
Stream size : 42.7 MiB (2%)
Language : English




Релиз от: kyba

   Похожие торренты   Торрент   Размер 
В этой теме нет новых непрочитанных сообщений. National Geographic: Спасение старейшей пирамиды Египта / Saving Egypt's Oldest Pyramid (2012) HDTV 1080i | P1

0 | 0

2.68 ГБ

В этой теме нет новых непрочитанных сообщений. Viasat History: Забытая армия викингов / Lost Viking Army (2019) HDTV 1080i | P1

0 | 0

2.6 ГБ

В этой теме нет новых непрочитанных сообщений. National Geographic: Затерянные сокровища Египта / Lost Treasures of Egypt [S02] (2020) HDTV 1080i | P1

0 | 0

18.17 ГБ

В этой теме нет новых непрочитанных сообщений. Viasat History: Гробницы Египта: самая важная миссия / Tombs of Egypt: The Ultimate Mission [S01] (2021) HDTVRip 720p | P1

40 | 2

3.16 ГБ

В этой теме нет новых непрочитанных сообщений. Viasat History: Затерянные пирамиды ацтеков / Lost Pyramids of the Aztecs [01-02 из 02] (2020) HDTV 1080i | P1

0 | 0

5.16 ГБ

В этой теме нет новых непрочитанных сообщений. Viasat History: Древние супестроения / Ancient Superstructures [01-02 из 04] (2019) HDTV 1080i | P1

3 | 0

5.56 ГБ

В этой теме нет новых непрочитанных сообщений. Viasat History: Древние небеса / Ancient Skies [01-03 из 03] (2019) HDTV 1080i | P1

20 | 5

8.3 ГБ




Вы не можете начинать темы
Вы не можете отвечать на сообщения
Вы не можете редактировать свои сообщения
Вы не можете удалять свои сообщения
Вы не можете добавлять вложения

Перейти:  
Контактная информация: rstracker[пёсик]yandex.ru
 Вход
ppkBB3cker v.2 © 2008-2014 @ PPK
[ Time : 0.020s | 18 Queries | GZIP : Off ]

cron