img image001 image001 image001 image001 image001 image001 image001 image001 image001 image001 image001 image001 image001 image001 image001

Planets Sun Sun Sun
Статистика раздачи
Автор: PriZraK | Размер: 2.19 ГБ | Добавлен: 27 мар 2022
Раздают: 0    Качают: 0
Скачать торрент
Скачать торрент
Описание торрента

СообщениеДобавлено: 27 мар 2022 

«Земля через 5 миллионов лет»


Страна: США, Германия, Великобритания
Производство: The Future is Wild Limited

Жанр: мультфильм, документальный
Год выпуска: 2003
Продолжительность: 02:36:28

Перевод: Профессиональный (многоголосый, закадровый)
Субтитры: нет
Оригинальная аудиодорожка: английский

Режиссер: Джон Адамс / John Adams

В ролях:
Тейлор Абрахамс, Марк Донато, Эшли Питерс, Кристиан Родска, Джереми Рэйнер, Брюс Х. Тиффни, Стефен Харрис, Стивен Р. Паломби, Ричард Форти, Уильям Джилли...


Описание:
Вы хотите узнать, что ждет нашу планету в далеком будущем? Как преобразится Земля, пережив глобальные катаклизмы, губительные изменения климата, столкновения материков и нашествие удивительных и невероятных существ? Теперь у Вас есть уникальная возможность заглянуть в неведомое грядущее вместе с создателями сенсационного фильма «Дикий мир будущего»!
Без машины времени Вы перенесетесь в будущее на 5 000 000, 100 000 000 и 200 000 000 лет, чтобы увидеть мир, достойный пера гениального фантаста. Но то, что предстанет Вашему взору, вовсе не выдумка! Пользуясь сложнейшими расчетами, строго обоснованными прогнозами и богатейшими познаниями в биологии и геологии, ведущие ученые из США, Великобритании, Германии и Канады вместе с мастерами компьютерной анимации создали портрет нашей планеты и ее обитателей спустя много веков после того, как ее покинет последний человек....





Исходник: DVD9 R5
Качество видео: DVDRip
Формат видео: AVI

Видео: 688x400 (1,72:1), 25 fps, XviD MPEG-4 ~ 1607 kbps avg, 0.234 bit/pixel
Аудио: Русский, 48 kHz, AC3 6 ch, 384.00 kbps Constant

Раздача от:
Общее
Полное имя : Progulki.s.monstrami.buduwego.DVDRip.2003.2,18_[Youtracker]_by_AVP_Studio.avi
Формат : AVI
Формат/Информация : Audio Video Interleave
Профиль формата : OpenDML
Размер файла : 2,19 Гбайт
Продолжительность : 2 ч. 36 м.
Общий поток : 2004 Кбит/сек
Программа кодирования : VirtualDubMod 1.5.10.3 | www.virtualdub-fr.org || (build 2550/release)
Библиотека кодирования : VirtualDubMod build 2550/release

Видео
Идентификатор : 0
Формат : MPEG-4 Visual
Профиль формата : Advanced Simple@L5
Параметр BVOP формата : 1
Параметр QPel формата : Нет
Параметр GMC формата : Без точки перехода
Параметр матрицы формата : Выборочная
Идентификатор кодека : XVID
Идентификатор кодека/Подсказка : XviD
Продолжительность : 2 ч. 36 м.
Битрейт : 1607 Кбит/сек
Ширина : 688 пикселей
Высота : 400 пикселей
Соотношение сторон : 16:9
Частота кадров : 25,000 кадров/сек
Цветовое пространство : YUV
Субдискретизация насыщенности : 4:2:0
Битовая глубина : 8 бит
Тип развёртки : Прогрессивная
Метод сжатия : С потерями
Бит/(Пиксели*Кадры) : 0.234
Размер потока : 1,76 Гбайт (80%)
Библиотека кодирования : XviD 65

Аудио
Идентификатор : 1
Формат : AC-3
Формат/Информация : Audio Coding 3
Расширение режима : CM (complete main)
Идентификатор кодека : 2000
Продолжительность : 2 ч. 36 м.
Вид битрейта : Постоянный
Битрейт : 384 Кбит/сек
Каналы : 6 каналов
Расположение каналов : Front: L C R, Side: L R, LFE
Частота : 48,0 КГц
Битовая глубина : 16 бит
Метод сжатия : С потерями
Размер потока : 430 Мбайт (19%)
Выравнивание : Разделение по промежуткам
Продолжительность промежутка : 40 мс. (1,00 видеокадр)
Время предзагрузки промежутка : 500 мс



   Похожие торренты   Торрент   Размер 
В этой теме нет новых непрочитанных сообщений. BBC: Прогулки с монстрами будущего / The Future Is Wild (2003) DVDRip-AVC от New-Team | P

0 | 0

2.91 ГБ

В этой теме нет новых непрочитанных сообщений. Удар из будущего / Future Kick (1991) DVDRip | А

1 | 0

1.37 ГБ

В этой теме нет новых непрочитанных сообщений. Капитан Пауэр и Солдаты будущего / Captain Power and the Soldiers of the Future [S01] (1987) DVDRip-AVC

36 | 3

8.04 ГБ

В этой теме нет новых непрочитанных сообщений. Человек будущего / Future Man [S01] (2017) WEBRip | L

78 | 13

4.74 ГБ

В этой теме нет новых непрочитанных сообщений. Человек будущего / Future Man [01x01-05 из 13] (2017) WEBRip | IdeaFilm

0 | 0

1.84 ГБ

В этой теме нет новых непрочитанных сообщений. Человек будущего / Future Man [S01] (2017) WEBRip | LostFilm

71 | 24

5.11 ГБ

В этой теме нет новых непрочитанных сообщений. Человек будущего / Future Man [01x01-05 из 13] (2017) WEBRip | IdeaFilm

120 | 20

4.72 ГБ




Вы не можете начинать темы
Вы не можете отвечать на сообщения
Вы не можете редактировать свои сообщения
Вы не можете удалять свои сообщения
Вы не можете добавлять вложения

Перейти:  
Контактная информация: rstracker[пёсик]yandex.ru
 Вход
ppkBB3cker v.2 © 2008-2014 @ PPK
[ Time : 0.033s | 17 Queries | GZIP : Off ]

cron