img image001 image001 image001 image001 image001 image001 image001 image001 image001 image001 image001 image001 image001 image001 image001

Planets Sun Sun Sun
Статистика раздачи
Автор: PriZraK | Размер: 8.98 ГБ | Добавлен: 27 мар 2022
Раздают: 79    Качают: 3
Скачать торрент
Скачать торрент
Описание торрента

СообщениеДобавлено: 27 мар 2022 

Информация о фильме
Название: Древний апокалипсис / Катастрофы древности
Оригинальное название: Ancient Apocalypse
Год выхода: 2021
Жанр: Документальный, история, катастрофы
Режиссер: Ники Болстер

О фильме:
На протяжении веков цивилизации возникали, а затем исчезали. Сериал пытается объяснить, как человеческие достижения были разрушены силами природы, раскрываем научные причины того, почему некоторые из самых интересных народов в истории исчезли из-за мощи мира природы.

Страна: Германия
Студия: ZDF Enterprises, World media rights
Продолжительность: 6 х - 00:49:59
Перевод: Профессиональный (одноголосый закадровый) SDI Media

Файл
Кодек: AVC/H.264
Качество: HDTVRip 720p
Видео: 1280x720 (16:9), 25 fps, AVC (H.264), High@L4,1, 4000 kbps avg, 0.174 bit/pixel
Звук:
Русский 48 kHz, AC3 Dolby Digital, 2/0 (L,R) ch, ~160.00 kbps avg
Английский 48 kHz, AC3 Dolby Digital, 2/0 (L,R) ch, ~128.00 kbps avg

Семпл

Complete name : L:ФильмыДокументальныеДревний апокалипсис�1. Содом и Гоморра_720p.mkv
Format : Matroska
Format version : Version 4
File size : 1.50 GiB
Duration : 49 min 59 s
Overall bit rate : 4 290 kb/s
Encoded date : UTC 2021-09-29 11:55:54
Writing application : mkvmerge v6.6.0 ('The Edge Of The In Between') built on Dec 1 2013 17:55:00
Writing library : libebml v1.3.0 + libmatroska v1.4.1

Video
ID : 1
Format : AVC
Format/Info : Advanced Video Codec
Format profile : High@L4.1
Format settings : CABAC / 9 Ref Frames
Format settings, CABAC : Yes
Format settings, Reference : 9 frames
Codec ID : V_MPEG4/ISO/AVC
Duration : 49 min 59 s
Bit rate : 4 000 kb/s
Width : 1 280 pixels
Height : 720 pixels
Display aspect ratio : 16:9
Frame rate mode : Constant
Frame rate : 25.000 FPS
Color space : YUV
Chroma subsampling : 4:2:0
Bit depth : 8 bits
Scan type : Progressive
Bits/(Pixel*Frame) : 0.174
Stream size : 1.37 GiB (91%)
Writing library : x264 core 148 r2638 7599210
Encoding settings : cabac=1 / ref=9 / deblock=1:-1:-1 / analyse=0x3:0x113 / me=umh / subme=10 / psy=1 / psy_rd=1.00:0.15 / mixed_ref=1 / me_range=32 / chroma_me=1 / trellis=2 / 8x8dct=1 / cqm=0 / deadzone=21,11 / fast_pskip=1 / chroma_qp_offset=-3 / threads=16 / lookahead_threads=2 / sliced_threads=0 / nr=0 / decimate=1 / interlaced=0 / bluray_compat=0 / constrained_intra=0 / bframes=9 / b_pyramid=2 / b_adapt=2 / b_bias=0 / direct=3 / weightb=1 / open_gop=0 / weightp=2 / keyint=250 / keyint_min=25 / scenecut=40 / intra_refresh=0 / rc_lookahead=60 / rc=2pass / mbtree=1 / bitrate=4000 / ratetol=1.0 / qcomp=0.60 / qpmin=0 / qpmax=69 / qpstep=4 / cplxblur=20.0 / qblur=0.5 / vbv_maxrate=14000 / vbv_bufsize=14000 / nal_hrd=none / filler=0 / ip_ratio=1.40 / aq=1:1.00
Default : Yes
Forced : No

Audio #1
ID : 2
Format : AC-3
Format/Info : Audio Coding 3
Commercial name : Dolby Digital
Codec ID : A_AC3
Duration : 49 min 59 s
Bit rate mode : Constant
Bit rate : 160 kb/s
Channel(s) : 2 channels
Channel layout : L R
Sampling rate : 48.0 kHz
Frame rate : 31.250 FPS (1536 SPF)
Compression mode : Lossy
Stream size : 57.2 MiB (4%)
Language : Russian
Service kind : Complete Main
Default : Yes
Forced : Yes

Audio #2
ID : 3
Format : AC-3
Format/Info : Audio Coding 3
Commercial name : Dolby Digital
Codec ID : A_AC3
Duration : 49 min 59 s
Bit rate mode : Constant
Bit rate : 128 kb/s
Channel(s) : 2 channels
Channel layout : L R
Sampling rate : 48.0 kHz
Frame rate : 31.250 FPS (1536 SPF)
Compression mode : Lossy
Stream size : 45.8 MiB (3%)
Language : English
Service kind : Complete Main
Default : No
Forced : No
01. Содом и Гоморра / Sodom and Gomorrah
Библейская история Содома. Тысячи лет она служила мощным уроком опасности зла. Согласно Библии, жители Содома были настолько нечестивы, что Бог разрушил город ливнем огня и серы. Но существовал ли когда-либо город Содом и можно ли его найти? В Талль-эль-Хаммаме, на территории современной Иордании, археологи обнаружили свидетельства некогда процветающего города бронзового века, разрушенного в результате какого-то катаклизма, который, по их мнению, является городом Содом.
02. Доггерленд / Doggerland
Восемь тысяч лет назад это был пышный рай, где обитали мамонты, олени и общества охотников-собирателей, соединял Британию и материковую Европу - Доггерленд. Но этого Эдема каменного века больше не существует. Он был уничтожен одним разрушительным событием, оставив его скрытым под волнами Северного моря почти на 8000 лет. Постепенно археология показывает, какой была жизнь в этом мезолитическом раю. Но также и то, как эти люди боролись за выживание, когда их мир был потерян под волнами.
03. Затерянный город Гелика / The Lost City of Helike
В 373 г. до н.э. классический греческий город Гелике исчез под волнами. Его разрушение было настолько катастрофическим, что единственный способ разобраться в этом - это возложить вину на сверхъестественное - Посейдон разрушил город. Это навязчиво похоже на миф о другой древней цивилизации, затерянной под волнами - Атлантиде. Местоположение Гелики - одна из величайших загадок в археологии, но возможно ли заново открыть потерянный город, и может он на самом деле быть Атлантидой?
04. Аккадианская империя / Akkadian Empire
В 2334 г. до н.э. аккадцы завоевали и объединили шумерские городские государства-королевства, чтобы создать первую в мире империю. Аккадцы правили большей частью Месопотамии, нынешними Ираком, Сирией и Турцией, но всего через 140 лет Аккадская империя распалась. Целые регионы Месопотамии погрузились в хаос, и само существование Аккадской империи было потеряно для истории. Теперь археологи прочесывают Ближний Восток в поисках информации о том, как они стали такими могущественными и почему рухнули.
05. Загадка морского народа / The Mystery of the Sea People
В Египте, Сирии, Турции и Греции к власти пришли некоторые из величайших цивилизаций бронзового века. Хеттская империя, микенцы, всемогущая Египетская империя. Но в 1200 г. до н.э. они взорвались, и период истории бронзового века рухнул. Что или кто виноват? Свидетельства со всего этого региона указывают на то, что волна за волной мародеров вторгается с моря прямо в момент обрушения бронзового века. Их стали называть Морскими Людьми. Могут ли они нести ответственность?
06. Цивилизация майя / The Maya Civilization
Между 250 и 900 годами нашей эры цивилизация майя построила одни из самых впечатляющих городов в истории. Они усовершенствовали математику, астрономию, архитектуру и календарь. Однако была и темная сторона - свидетельства человеческих жертвоприношений и войны. Но примерно с 900 г. н.э. удача майя закончилась, и их большие города были в значительной степени заброшены. Были ли недовольны их боги? Археологи обыскивают джунгли Центральной Америки в поисках ключей, которые помогут объяснить впечатляющий крах цивилизации майя.






Релиз от: kyba

   Похожие торренты   Торрент   Размер 
В этой теме нет новых непрочитанных сообщений. Древний апокалипсис / Катастрофы древности / Ancient Apocalypse [01-06 из 06] (2021) DVB | P2, P1

31 | 0

6.35 ГБ

В этой теме нет новых непрочитанных сообщений. Viasat History: Помпеи: 48 часов до катастрофы / The Last Days of Pompeii [01-03] (2018) HDTVRip | P1

2 | 1

1.88 ГБ

В этой теме нет новых непрочитанных сообщений. Viasat History: Древние суперстроения / Ancient Superstructures [S01] (2019) HDTV 1080i | P1

0 | 0

11.22 ГБ

В этой теме нет новых непрочитанных сообщений. Viasat History: Тайны утраченного ковчега / Secrets of the Lost Ark [S01] (2021) HDTVRip 720p | P1

3 | 0

7.57 ГБ

В этой теме нет новых непрочитанных сообщений. Viasat History: Гробницы Египта: самая важная миссия / Tombs of Egypt: The Ultimate Mission [S01] (2021) HDTVRip 720p | P1

40 | 2

3.16 ГБ

В этой теме нет новых непрочитанных сообщений. Viasat History: Помпеи: 48 часов до катастрофы / The Last Days of Pompeii [01-03] (2018) HDTV 1080p | P1

0 | 4

4.28 ГБ

В этой теме нет новых непрочитанных сообщений. Viasat History: Древние небеса / Ancient Skies [01-03 из 03] (2019) HDTV 1080i | P1

20 | 5

8.3 ГБ




Вы не можете начинать темы
Вы не можете отвечать на сообщения
Вы не можете редактировать свои сообщения
Вы не можете удалять свои сообщения
Вы не можете добавлять вложения

Перейти:  
Контактная информация: rstracker[пёсик]yandex.ru
 Вход
ppkBB3cker v.2 © 2008-2014 @ PPK
[ Time : 0.017s | 20 Queries | GZIP : Off ]

cron