img image001 image001 image001 image001 image001 image001 image001 image001 image001 image001 image001 image001 image001 image001 image001

Planets Sun Sun Sun
Статистика раздачи
Автор: Снежана | Размер: 1.37 ГБ | Добавлен: 24 июл 2013
Раздают: 35    Качают: 4
Скачать торрент
Скачать торрент
Описание торрента

СообщениеДобавлено: 24 июл 2013 

#77

Информация о фильме
Название: Кто убил электрокар?
Оригинальное название: Who Killed the Electric Car?
Год выхода: 2006
Жанр: документальный
Режиссер: Крис Пейн / Chris Paine
В ролях: Мартин Шин, Reverend Gadget, Dave Barthmuss, Эд Бегли мл., Джим Бойд, Алек Н. Брукс, Alan Cocconi, John R. Dabels, Филлис Диллер, Колетт Дивайн

О фильме:
В начале 1990-х годов штат Калифорния, один из самых «загазованных» регионов США, буквально задыхавшийся в автомобильном смоге, принял специальный закон, Zero Emission Act. Этот закон в максимально категоричной, но при этом вполне реалистичной форме потребовал, чтобы все компании автомобильной индустрии каждый год продавали определенное количество машин «с нулевым выхлопом».

В частности, к 1998 году доля таких автомобилей должна была составить 2%. Компания General Motors, где уже имелся солидный задел в разработке электромобилей, отреагировала одной из первых и с 1996 года начала серийный выпуск спортивной модели EV1 с чисто электрическим приводом. Правда, поскольку дело было совершенно новое, такие машины не продавались клиентам, а сдавались в аренду — по цене 500 долларов в месяц.

Основной массой пользователей EV1 стала голливудская богемная публика, то есть известные и весьма состоятельные деятели киноиндустрии (в том числе и режиссер вышеупомянутой картины). Судя по отзывам арендаторов EV1, машина им очень нравилась, и следующим логичным шагом должно было стать начало массовых продаж электромобилей. Однако реальная жизнь пошла совсем по другой логике.

Уже через несколько лет по довольно мутным причинам калифорнийские власти отменили свой собственный «экологический» закон, дав GM формальные основания для прекращения выпуска электромобилей. В фильме Криса Пэйна очевидцы и участники происходившего рассказывают, что сделано это было под мощнейшим давлением корпораций и лоббистов в федеральных органах власти. Сколь серьезную угрозу представляет массовый выпуск электромобилей для могущественной нефтяной индустрии, объяснять, наверное, не надо.

Но помимо этого, электромобили по многим параметрам невыгодны и для автомобильной промышленности. Например, автоиндустрия делает огромные деньги на продажах запчастей, а как показала эксплуатация EV1, техобслуживание электрических машин оказалось достаточно простым делом. Поэтому, как только появился формальный повод (новые требования к автомобильным системам безопасности), компания GM отозвала все свои электромобили у арендаторов и втихаря уничтожила их на свалке в безлюдной глуши Аризонской пустыни.

Автор фильма, восстанавливая эту грустную историю, далек от мысли о кознях каких-то конкретных злодеев. Это фильм об уже готовой технологии, которая оказалась в нужное время и в нужном месте, однако в окружении совсем не тех людей. Потому что в обществе, помимо жадных корпораций и коррумпированных чиновников, есть еще и масса рядовых граждан, от внимания и интереса которых тоже многое зависит. К сожалению, уничтожение EV1 не вызвало практически никакого интереса у широкой публики. Так что после просмотра фильма-расследования у внимательного зрителя не останется никаких сомнений, кто же убил электромобиль.

Страна: США
Продолжительность: 01:32:28
Перевод: Профессиональный (двухголосый, закадровый)

Файл
Кодек: DivX / AC3
Качество: DVDRip
Видео: DivX 5, 720x400 (16/9), 23.976 fps, 1791 Kbps (0.259 bit/pixel)
Звук: AC-3, 48.0 KHz, 2 ch, 320 Kbps, CBR

Семпл

Общее
Полное имя : F:Kto.ubil.elektrokar.2006.DivX.DVDRip.[Rutor.org].avi
Формат : AVI
Формат/Информация : Audio Video Interleave
Размер файла : 1,37 Гбайт
Продолжительность : 1 ч. 32 м.
Общий поток : 2117 Кбит/сек
Программа кодирования : VirtualDubMod 1.5.4.1 (build 2178/release)
Библиотека кодирования : VirtualDubMod build 2178/release

Видео
Идентификатор : 0
Формат : MPEG-4 Visual
Параметр BVOP формата : 1
Параметр QPel формата : Нет
Параметр GMC формата : Без точки перехода
Параметр матрицы формата : Default (H.263)
Режим смешивания : Сжатый битовый поток
Идентификатор кодека : DX50
Идентификатор кодека/Подсказка : DivX 5
Продолжительность : 1 ч. 32 м.
Битрейт : 1791 Кбит/сек
Ширина : 720 пикс.
Высота : 400 пикс.
Соотношение сторон : 16:9
Частота кадров : 23,976 кадр/сек
Цветовое пространство : YUV
Подвыборка цветности : 4:2:0
Битовая глубина : 8 бит
Тип развёртки : Прогрессивная
Метод сжатия : С потерями
Бит/(Пиксели*Кадры) : 0.259
Размер потока : 1,16 Гбайт (85%)
Библиотека кодирования : DivX 6.8.3-6.8.4 (UTC 2008-06-07)

Аудио
Идентификатор : 1
Формат : AC-3
Формат/Информация : Audio Coding 3
Расширение режима : CM (complete main)
Идентификатор кодека : 2000
Продолжительность : 1 ч. 32 м.
Вид битрейта : Постоянный
Битрейт : 320 Кбит/сек
Канал(ы) : 2 канала(ов)
Расположение каналов : Front: L R
Частота : 48,0 КГц
Битовая глубина : 16 бит
Метод сжатия : С потерями
Задержка видео : 8 мс.
Размер потока : 212 Мбайт (15%)
Выравнивание : Разделение по промежуткам
Продолжительность промежутка : 96 мс. (2,30 видеокадров)
Время предзагрузки промежутка : 96 ms
Язык : Russian




   Похожие торренты   Торрент   Размер 
В этой теме нет новых непрочитанных сообщений. BBC: Кто убил Распутина / BBC: Who Killed Rasputin (2005) DVDRip

8 | 5

700.24 МБ

В этой теме нет новых непрочитанных сообщений. Я убил свою маму / J'ai tué ma mère / I Killed My Mother (2009) DVDRip

60 | 6

1.37 ГБ

В этой теме нет новых непрочитанных сообщений. Я убил свою маму / J'ai tué ma mère / I Killed My Mother (2009) DVDRip

18 | 6

692.77 МБ

В этой теме нет новых непрочитанных сообщений. BBC: Кто убил Ивана Грозного? / Who Killed Ivan The Terrible? (2005) DVDRip от SilverCinema

0 | 1

600.6 МБ

В этой теме нет новых непрочитанных сообщений. ВВС. Загадки истории. Кто убил Сталина? / BBC: Timewatch. Who Killed Stalin? (2005) DVDRip от Киномагия

1 | 1

1013.75 МБ

В этой теме нет новых непрочитанных сообщений. Я знаю, кто убил меня / I Know Who Killed Me (2007) BDRip-AVC

5 | 4

4.18 ГБ

В этой теме нет новых непрочитанных сообщений. Я знаю, кто убил меня / I Know Who Killed Me (2007) HDRip

27 | 3

2.18 ГБ




Вы не можете начинать темы
Вы не можете отвечать на сообщения
Вы не можете редактировать свои сообщения
Вы не можете удалять свои сообщения
Вы не можете добавлять вложения

Перейти:  
Для Мосгорсуда, Роскомнадзора и рекламодателей: mosgorsud-torrent[собачка]yandex.ru
 Вход
ppkBB3cker v.2 © 2008-2014 @ PPK
[ Time : 0.063s | 16 Queries | GZIP : Off ]

cron