img image001 image001 image001 image001 image001 image001 image001 image001 image001 image001 image001 image001 image001 image001 image001

Planets Sun Sun Sun
Статистика раздачи
Автор: Снежана | Размер: 1.55 ГБ | Добавлен: 24 июл 2013
Раздают: 0    Качают: 4
Скачать торрент
Скачать торрент
Описание торрента

СообщениеДобавлено: 24 июл 2013 

#77

Информация о фильме
Название: Лягушки на грани исчезновения
Оригинальное название: Frogs The Thin Green Line
Год выхода: 2009
Жанр: Документальный
Режиссер: Эллисон Арго

О фильме:
Лягушки живут на этой планете более чем ''360 миллионов лет'', и на протяжении столетий, превратились в одни из самых чудесных и разнообразных существ на земле. Сегодня, однако, все их замечательные приспособления и тактика выживания не оправдывает себя. Действительно, это печальное положение дел для лягушек. Мы уже, наверное, потеряли треть амфибий, и многие другие находятся под серьезной угрозой.

Страна: США
Продолжительность: 00:47:11
Перевод: Профессиональный (одноголосый закадровый)

Файл
Кодек: x264
Качество: HDTVRip 720p
Видео: 1280х720 (16:9), 4500 Kbps, 25,000 fps, 0.195 bit/pixel
Звук: AC3 Dolby Digital; 48 kHz, 2 ch, 192 kbps
Субтитры: Нет

Общее
Уникальный идентификатор : 233284893388876432362153844205197504330 (0xAF810942C52A9040B21870AB7EF4AF4A)
Полное имя : F:Ljagushki.na.grane.ischeznovenija.2009.x264.HDTVRip.720p.mkv
Формат : Matroska
Размер файла : 1,55 Гбайт
Продолжительность : 47 м.
Общий поток : 4703 Кбит/сек
Дата кодирования : UTC 2010-06-11 14:17:27
Программа кодирования : mkvmerge v3.3.0 ('Language') built on Mar 24 2010 14:59:24
Библиотека кодирования : libebml v0.8.0 + libmatroska v0.9.0

Видео
Идентификатор : 1
Формат : AVC
Формат/Информация : Advanced Video Codec
Профиль формата : High@L4.1
Параметр CABAC формата : Да
Параметр ReFrames формата : 3 кадры
Идентификатор кодека : V_MPEG4/ISO/AVC
Продолжительность : 47 м.
Битрейт : 4500 Кбит/сек
Ширина : 1280 пикс.
Высота : 720 пикс.
Соотношение сторон : 16:9
Частота кадров : 25,000 кадр/сек
Цветовое пространство : YUV
Подвыборка цветности : 4:2:0
Битовая глубина : 8 бит
Тип развёртки : Прогрессивная
Бит/(Пиксели*Кадры) : 0.195
Размер потока : 1,46 Гбайт (94%)
Библиотека кодирования : x264 core 79 r1342kMod e8501ef
Настройки программы : cabac=1 / ref=3 / deblock=1:0:0 / analyse=0x3:0x113 / me=hex / subme=7 / psy=1 / psy_rd=1.0:0.0 / mixed_ref=1 / me_range=16 / chroma_me=1 / trellis=1 / 8x8dct=1 / cqm=0 / deadzone=21,11 / chroma_qp_offset=-2 / threads=3 / nr=0 / decimate=1 / mbaff=0 / constrained_intra=0 / bframes=3 / b_pyramid=0 / b_adapt=1 / b_bias=0 / direct=1 / wpredb=1 / wpredp=2 / keyint=250 / keyint_min=25 / scenecut=40 / rc_lookahead=50 / rc=abr / mbtree=1 / bitrate=4500 / ratetol=1.0 / qcomp=0.60 / qpmin=10 / qpmax=51 / qpstep=4 / ip_ratio=1.40 / aq=1:1.00

Аудио
Идентификатор : 2
Формат : AC-3
Формат/Информация : Audio Coding 3
Расширение режима : CM (complete main)
Идентификатор кодека : A_AC3
Продолжительность : 47 м.
Вид битрейта : Постоянный
Битрейт : 192 Кбит/сек
Канал(ы) : 2 канала(ов)
Расположение каналов : Front: L R
Частота : 48,0 КГц
Битовая глубина : 16 бит
Метод сжатия : С потерями
Размер потока : 64,8 Мбайт (4%)
Язык : Russian







   Похожие торренты   Торрент   Размер 
В этой теме нет новых непрочитанных сообщений. National Geographic: Животный страх. Лягушки / National Geographic: Animal Nightmares. Frogs (2003) SATRip от tenow

2 | 2

292.39 МБ

В этой теме нет новых непрочитанных сообщений. National Geographic. Суперсооружения: Строительство зеленого Пекина / National Geographic. MegaStructures: Building Green Beijing (2009) SATRip от tenow

1 | 3

598.93 МБ

В этой теме нет новых непрочитанных сообщений. National Geographic. Доисторические хищники / National Geographic. Prehistoric Predators [5 из 7] (2007-2009) HDTVRip 720p

314 | 46

6.09 ГБ

В этой теме нет новых непрочитанных сообщений. National Geographic. Бугатти - супермашина / National Geographic. Bugatti Super Car (2009) HDTVRip 720p

0 | 3

1.13 ГБ

В этой теме нет новых непрочитанных сообщений. National Geographic: Бобровая плотина / National Geographic: Dam Beavers (2009) HDTVRip 720p

38 | 2

1.15 ГБ

В этой теме нет новых непрочитанных сообщений. National Geographic. Место жительства - Марс / Заселение Марса / National Geographic: Living on Mars (2009) HDTVRip от -=HD-NET=-

75 | 23

613.08 МБ

В этой теме нет новых непрочитанных сообщений. National Geographic: Загадки королевской кобры / National Geographic: Secrets of the King Cobra (2009) HDTVRip от KinoZalSat

1 | 5

699.38 МБ




Вы не можете начинать темы
Вы не можете отвечать на сообщения
Вы не можете редактировать свои сообщения
Вы не можете удалять свои сообщения
Вы не можете добавлять вложения

Перейти:  
Для Мосгорсуда, Роскомнадзора и рекламодателей: mosgorsud-torrent[собачка]yandex.ru
 Вход
ppkBB3cker v.2 © 2008-2014 @ PPK
[ Time : 0.060s | 14 Queries | GZIP : Off ]

Торрент трекер RUTOR.IN, Не можете зайти на rutor.org? Какой новый адрес рутор? Какое зеркало рутор? Не работает rutor.org и зеркала? Тогда наш торрент специально для вас. Rutor.in неофициальное зеркало rutor. В случае если у Вас заблокирован rutor или вдруг Вы не можете на него зайти, то Вы без труда сможете скачать бесплатно и без рекламы последние новинки кино, игр, сериалов и прочего у нас, на Rutor.in. Не нужно использовать прокси, чтобы зайти на рутор, достаточно воспользоваться нашим ресурсом. Все новые фильмы, игры, сериалы, книги и музыка за 2013 и 2014 годы через торрент бесплатно. Скачивайте фильмы в хорошем качестве, игры для пк, xbox, playstation без регистрации. У нас вы найдете новые Зарубежные сериалы и Русские сериалы 2013, 2014, 2015 годов. Оставайтесь с нами, качайте любимые фильмы, игры, сериалы, книги и музыку.