img image001 image001 image001 image001 image001 image001 image001 image001 image001 image001 image001 image001 image001 image001 image001

Planets Sun Sun Sun
Статистика раздачи
Автор: Снежана | Размер: 2.19 ГБ | Добавлен: 24 июл 2013
Раздают: 13    Качают: 5
Скачать торрент
Скачать торрент
Описание торрента

СообщениеДобавлено: 24 июл 2013 

IMAX: На глубине морской

IMAX: Under the Sea



Cлоган«Мир за гранью воображения»

Год выпуска: 2009
Страна: США, Канада
Жанр: документальный, научно-популярный
Продолжительность: 40 мин.
Перевод: Любительский (одноголосый)(1001Cinema)

Режиссер: Ховард Холл
Продюссер: Тодд Фелмэн, Грем Фергюсон, Мишель Холл
Сценарий: Ховард Холл

Премьера в мире: 13 февраля 2009

G - Нет возрастных ограничений
7.50 (339)

Описание: Снятый полностью трехмерными камерами IMAX®, этот новый фильм перемещает зрителей в одни из самых экзотических и изолированных подводных мест на Земле, включая Южную Австралию и Большой Барьерный риф, а так же Папуа-Новую Гвинею и Индонезию в знаменитом Коралловом Треугольнике. В фильме показаны привычки и среда обитания больших белых акул, яркой каракатицы, покрытых листвой морских драконов, гигантских скатов, медуз, зеленых морских черепах, игривых австралийских морских львов, шестифутовых угрей и множество других красочных рыб и обитателей морской жизни.

Качество: BDRip(источник Blu-Ray Remux 1080p )
Формат: MKV
Видео кодек: H.26x
Аудио кодек: AC3
Видео: Matroska: 2,19 Гбайт, 40 м.English, 6572 Кбит/сек, 1920*1080 (16:9), в 23,976 кадр/сек, AVC (High@L5.1) (CABAC / 14 Ref Frames)
Аудио#: Russian, 448 Кбит/сек, 48,0 КГц, 16 бит, 6 канала(ов), AC-3(1001Cinema)
Аудио#:English, 640 Кбит/сек, 48,0 КГц, 16 бит, 6 канала(ов), AC-3(Джим Керри)
Субтитры:VobSubEnglish: VobSubRussian
Полное имя : F:торрентIMAX Under the Sea 2009 HDRip 1080p.mkv
Формат : Matroska
Размер файла : 2,19 Гбайт
Продолжительность : 40 м.
Общий поток : 7668 Кбит/сек
Дата кодирования : UTC 2011-02-08 13:13:38
Программа кодирования : mkvmerge v4.4.0 ('Die Wiederkehr') built on Oct 31 2010 21:52:48
Библиотека кодирования : libebml v1.0.0 + libmatroska v1.0.0

Видео
Идентификатор : 1
Формат : AVC
Формат/Информация : Advanced Video Codec
Профиль формата : High@L5.1
Параметр CABAC формата : Да
Параметр ReFrames формата : 14 кадры
Идентификатор кодека : V_MPEG4/ISO/AVC
Продолжительность : 40 м.
Битрейт : 6572 Кбит/сек
Ширина : 1920 пикс.
Высота : 1080 пикс.
Соотношение сторон : 16:9
Частота кадров : 23,976 кадр/сек
Цветовое пространство : YUV
Подвыборка цветности : 4:2:0
Битовая глубина : 8 бит
Тип развёртки : Прогрессивная
Бит/(Пиксели*Кадры) : 0.132
Размер потока : 1,83 Гбайт (84%)
Библиотека кодирования : x264 core 112 r1867 22bfd31
Настройки программы : cabac=1 / ref=14 / deblock=1:-3:-3 / analyse=0x3:0x133 / me=umh / subme=7 / psy=1 / psy_rd=1.00:0.00 / mixed_ref=1 / me_range=32 / chroma_me=1 / trellis=2 / 8x8dct=1 / cqm=0 / deadzone=21,11 / fast_pskip=1 / chroma_qp_offset=-2 / threads=6 / sliced_threads=0 / nr=0 / decimate=1 / interlaced=0 / constrained_intra=0 / bframes=9 / b_pyramid=2 / b_adapt=2 / b_bias=0 / direct=1 / weightb=1 / open_gop=0 / weightp=2 / keyint=250 / keyint_min=23 / scenecut=40 / intra_refresh=0 / rc_lookahead=40 / rc=2pass / mbtree=1 / bitrate=6572 / ratetol=1.0 / qcomp=0.80 / qpmin=5 / qpmax=51 / qpstep=4 / cplxblur=20.0 / qblur=0.5 / ip_ratio=1.40 / aq=1:1.00
Язык : English

Аудио #1
Идентификатор : 2
Формат : AC-3
Формат/Информация : Audio Coding 3
Расширение режима : CM (complete main)
Идентификатор кодека : A_AC3
Продолжительность : 40 м.
Вид битрейта : Постоянный
Битрейт : 448 Кбит/сек
Канал(ы) : 6 канала(ов)
Расположение каналов : Front: L C R, Side: L R, LFE
Частота : 48,0 КГц
Битовая глубина : 16 бит
Метод сжатия : С потерями
Задержка видео : 13 мс.
Размер потока : 131 Мбайт (6%)
Язык : Russian

Аудио #2
Идентификатор : 3
Формат : AC-3
Формат/Информация : Audio Coding 3
Расширение режима : CM (complete main)
Идентификатор кодека : A_AC3
Продолжительность : 40 м.
Вид битрейта : Постоянный
Битрейт : 640 Кбит/сек
Канал(ы) : 6 канала(ов)
Расположение каналов : Front: L C R, Side: L R, LFE
Частота : 48,0 КГц
Битовая глубина : 16 бит
Метод сжатия : С потерями
Размер потока : 187 Мбайт (8%)
Язык : English

Текст #1
Идентификатор : 4
Формат : VobSub
Режим смешивания : zlib
Идентификатор кодека : S_VOBSUB
Идентификатор кодека/Информация : The same subtitle format used on DVDs
Язык : Russian

Текст #2
Идентификатор : 5
Формат : VobSub
Режим смешивания : zlib
Идентификатор кодека : S_VOBSUB
Идентификатор кодека/Информация : The same subtitle format used on DVDs
Язык : English

Меню
00:00:00.000 : en:00:00:00.000
00:09:11.509 : en:00:09:11.509
00:19:25.747 : en:00:19:25.747
00:29:32.604 : en:00:29:32.604
00:39:36.290 : en:00:39:36.290


[img]http://www.imagepost.ru/images/811/IMAX_Under_the_Sea_2009_HDRip_1080p.mkv_snapshot_08.57_k2011.03.26_21.14.14K.jpg
[/img]





Релиз от :

   Похожие торренты   Торрент   Размер 
В этой теме нет новых непрочитанных сообщений. Трансформеры: Эпоха истребления / Transformers: Age of Extinction (2014) BDRemux 1080р | IMAX | Лицензия

68 | 21

26.34 ГБ

В этой теме нет новых непрочитанных сообщений. Морской ястреб / The Sea Hawk (1940) BDRip 720p от KORSAR | P, P2

0 | 6

6.58 ГБ

В этой теме нет новых непрочитанных сообщений. Дюнкерк / Dunkirk (2017) BDRip | IMAX | Лицензия

504 | 17

2.18 ГБ

В этой теме нет новых непрочитанных сообщений. Довод / Tenet (2020) BDRip 720p от HELLYWOOD | IMAX | D, A

0 | 0

9.18 ГБ

В этой теме нет новых непрочитанных сообщений. Дюнкерк / Dunkirk (2017) BDRip 1080p | IMAX | Лицензия

566 | 151

12.27 ГБ

В этой теме нет новых непрочитанных сообщений. Дюнкерк / Dunkirk (2017) BDRip 720p | IMAX | Лицензия

1055 | 198

5.56 ГБ

В этой теме нет новых непрочитанных сообщений. Дюнкерк / Dunkirk (2017) BDRip от MegaPeer | IMAX | Лицензия

8948 | 231

1.46 ГБ




Вы не можете начинать темы
Вы не можете отвечать на сообщения
Вы не можете редактировать свои сообщения
Вы не можете удалять свои сообщения
Вы не можете добавлять вложения

Перейти:  
Контактная информация: rstracker[пёсик]yandex.ru
 Вход
ppkBB3cker v.2 © 2008-2014 @ PPK
[ Time : 0.024s | 15 Queries | GZIP : Off ]

cron