img image001 image001 image001 image001 image001 image001 image001 image001 image001 image001 image001 image001 image001 image001 image001

Planets Sun Sun Sun
Статистика раздачи
Автор: Снежана | Размер: 4.57 ГБ | Добавлен: 24 июл 2013
Раздают: 1    Качают: 5
Скачать торрент
Скачать торрент
Описание торрента

СообщениеДобавлено: 24 июл 2013 

#77

Информация о фильме
Название: Осенний цвет Киото
Оригинальное название: Kyoto Autumn Color
Год выхода: 2007
Жанр: Документальный
Режиссер: неизвесно
О фильме:
Осенние парки и сады Японии под прекрасную музыку. Потрясающе красивое видео для максимальной релаксации...
Страна: Япония
Продолжительность: 01:23:38
Перевод: не требуется

Файл
Кодек: Н264
Качество: BDRip 720p
Видео: 1280x720 ,7036 Кбит/сек,29,970 кадр/сек,0.255
Звук: АС-3,448 Кбит/сек,2 канала(ов),48,0 КГц
Субтитры: Английскии

Семпл
Уникальный идентификатор : 207442248716430312019367348653123066203 (0x9C0FEC81A80A582C845897C3678A595B)
Полное имя : D:торрентOsenniy.cvet.Kioto.2007.х264.BDRip.720p.mkv
Формат : Matroska
Размер файла : 4,57 Гбайт
Продолжительность : 1 ч. 23 м.
Общий поток : 7828 Кбит/сек
Дата кодирования : UTC 2011-02-22 18:24:09
Программа кодирования : mkvmerge v4.4.0 ('Die Wiederkehr') built on Oct 31 2010 21:52:48
Библиотека кодирования : libebml v1.0.0 + libmatroska v1.0.0

Видео
Идентификатор : 1
Формат : AVC
Формат/Информация : Advanced Video Codec
Профиль формата : High@L5.0
Параметр CABAC формата : Да
Параметр ReFrames формата : 12 кадры
Идентификатор кодека : V_MPEG4/ISO/AVC
Продолжительность : 1 ч. 23 м.
Битрейт : 7036 Кбит/сек
Ширина : 1280 пикс.
Высота : 720 пикс.
Соотношение сторон : 16:9
Частота кадров : 29,970 кадр/сек
Цветовое пространство : YUV
Подвыборка цветности : 4:2:0
Битовая глубина : 8 бит
Тип развёртки : Прогрессивная
Бит/(Пиксели*Кадры) : 0.255
Размер потока : 4,22 Гбайт (92%)
Библиотека кодирования : x264 core 114 r1913 5fd3dce
Настройки программы : cabac=1 / ref=12 / deblock=1:-1:-1 / analyse=0x3:0x113 / me=umh / subme=7 / psy=1 / psy_rd=1.00:0.15 / mixed_ref=1 / me_range=32 / chroma_me=1 / trellis=1 / 8x8dct=1 / cqm=0 / deadzone=21,11 / fast_pskip=1 / chroma_qp_offset=-3 / threads=6 / sliced_threads=0 / nr=0 / decimate=1 / interlaced=0 / constrained_intra=0 / bframes=8 / b_pyramid=2 / b_adapt=2 / b_bias=0 / direct=3 / weightb=1 / open_gop=0 / weightp=2 / keyint=250 / keyint_min=25 / scenecut=40 / intra_refresh=0 / rc_lookahead=50 / rc=2pass / mbtree=1 / bitrate=7036 / ratetol=1.0 / qcomp=0.60 / qpmin=0 / qpmax=69 / qpstep=4 / cplxblur=20.0 / qblur=0.5 / ip_ratio=1.40 / aq=1:1.00
Язык : English

Аудио
Идентификатор : 2
Формат : AC-3
Формат/Информация : Audio Coding 3
Расширение режима : CM (complete main)
Идентификатор кодека : A_AC3
Продолжительность : 1 ч. 23 м.
Вид битрейта : Постоянный
Битрейт : 448 Кбит/сек
Канал(ы) : 2 канала(ов)
Расположение каналов : Front: L R
Частота : 48,0 КГц
Битовая глубина : 16 бит
Метод сжатия : С потерями
Размер потока : 268 Мбайт (6%)
Язык : Japanese

Текст
Идентификатор : 3
Формат : PGS
Режим смешивания : zlib
Идентификатор кодека : S_HDMV/PGS
Идентификатор кодека/Информация : The same subtitle format used on BDs/HD-DVDs
Язык : English

Меню
00:00:00.000 : en:00:00:00.000
00:06:54.080 : en:00:06:54.080
00:08:46.359 : en:00:08:46.359
00:13:25.471 : en:00:13:25.471
00:14:57.563 : en:00:14:57.563
00:16:14.473 : en:00:16:14.473
00:20:02.201 : en:00:20:02.201
00:24:35.474 : en:00:24:35.474
00:29:02.908 : en:00:29:02.908
00:33:58.703 : en:00:33:58.703
00:36:15.840 : en:00:36:15.840
00:37:29.247 : en:00:37:29.247
00:38:27.805 : en:00:38:27.805
00:40:47.612 : en:00:40:47.612
00:41:59.517 : en:00:41:59.517
00:44:09.313 : en:00:44:09.313
00:45:25.823 : en:00:45:25.823
00:51:37.428 : en:00:51:37.428
00:56:05.529 : en:00:56:05.529
00:59:11.515 : en:00:59:11.515
01:01:05.629 : en:01:01:05.629
01:05:24.354 : en:01:05:24.354
01:10:10.373 : en:01:10:10.373
01:11:45.468 : en:01:11:45.468
01:14:16.385 : en:01:14:16.385
01:15:02.331 : en:01:15:02.331
01:19:51.687 : en:01:19:51.687




Релиз от:



   Похожие торренты   Торрент   Размер 
В этой теме нет новых непрочитанных сообщений. Осенний цвет Киото / Kyoto Autumn Color (2007) BDRip 720p от NNNB

65 | 3

4.37 ГБ

В этой теме нет новых непрочитанных сообщений. Осенний цвет Киото / Kyoto Autumn Color (2007) BDRip от HQ-ViDEO

5 | 2

1.45 ГБ

В этой теме нет новых непрочитанных сообщений. Цвет ночи / Color of Night (1994) BDRip 1080p от FREEISLAND

62 | 12

7.95 ГБ

В этой теме нет новых непрочитанных сообщений. Бродяга Кэнсин: Хроники великого пожара в Киото / Rurouni Kenshin: Kyoto Inferno (2014) BDRip 720p от BTT-TEAM и ANIDUB | L2

80 | 6

7.14 ГБ

В этой теме нет новых непрочитанных сообщений. Цвет Рая / Цвет Бога / Rang-e khoda / The Color of Paradise (1999) DVD5

1 | 2

4.24 ГБ

В этой теме нет новых непрочитанных сообщений. Цвет Рая / Цвет Бога / Rang-e khoda / The Color of Paradise (1999) DVDRip-AVC | P

60 | 21

1.46 ГБ

В этой теме нет новых непрочитанных сообщений. Цвет Рая / Цвет Бога / Rang-e khoda / The Color of Paradise (1999) DVDRip

11 | 3

1.37 ГБ




Вы не можете начинать темы
Вы не можете отвечать на сообщения
Вы не можете редактировать свои сообщения
Вы не можете удалять свои сообщения
Вы не можете добавлять вложения

Перейти:  
Для Мосгорсуда, Роскомнадзора и рекламодателей: mosgorsud-torrent[собачка]yandex.ru
 Вход
ppkBB3cker v.2 © 2008-2014 @ PPK
[ Time : 0.550s | 14 Queries | GZIP : On ]

Торрент трекер RUTOR.IN, Не можете зайти на rutor.org? Какой новый адрес рутор? Какое зеркало рутор? Не работает rutor.org и зеркала? Тогда наш торрент специально для вас. Rutor.in неофициальное зеркало rutor. В случае если у Вас заблокирован rutor или вдруг Вы не можете на него зайти, то Вы без труда сможете скачать бесплатно и без рекламы последние новинки кино, игр, сериалов и прочего у нас, на Rutor.in. Не нужно использовать прокси, чтобы зайти на рутор, достаточно воспользоваться нашим ресурсом. Все новые фильмы, игры, сериалы, книги и музыка за 2013 и 2014 годы через торрент бесплатно. Скачивайте фильмы в хорошем качестве, игры для пк, xbox, playstation без регистрации. У нас вы найдете новые Зарубежные сериалы и Русские сериалы 2013, 2014, 2015 годов. Оставайтесь с нами, качайте любимые фильмы, игры, сериалы, книги и музыку.