img image001 image001 image001 image001 image001 image001 image001 image001 image001 image001 image001 image001 image001 image001 image001

Planets Sun Sun Sun
Статистика раздачи
Автор: Снежана | Размер: 2.24 ГБ | Добавлен: 24 июл 2013
Раздают: 13    Качают: 5
Скачать торрент
Скачать торрент
Описание торрента

СообщениеДобавлено: 24 июл 2013 

[font='Courier New']Акулы 3D[/font]

Sharks 3D




Год выпуска: 2004
Страна: Франция, Великобритания, Багамы
Жанр: документальный, короткометражка
Продолжительность: 42 мин.
Перевод: Профессиональный (полное дублирование)

Режиссер: Жан-Жак Мантелло
Продюссер: Франсуа Мантелло

Бюджет: $5 000 000
Премьера в мире: 15 декабря 2004

Описание: Представленный Жаном-Мишелем Кусто трехмерный фильм «Акулы 3D» — это захватывающее зрелище, где публика имеет возможность буквально лицом к лицу встретиться со «львами» и «тиграми» мирового океана. Среди них — большая белая, китовая и рыба-молот.Познакомьтесь с ними в их естественной среде обитания, постаравшись увидеть в них не пресловутых хищников-людоедов, а просто больших и красивых рыб, существовавших на Земле еще задолго до появления динозавров. Присоединяйтесь к команде опытных исследователей моря, которые отправляются в новую кругосветную экспедицию, чтобы запечатлеть на пленку жизнь самых опасных хищников мирового океана.

Качество: ВDRip 1080р
Формат: MKV
Видео кодек: H.264
Аудио кодек: AC3
Видео: English, 6827 Кбит/сек, 1920*1072 (16:9), в 23,976 кадр/сек, AVC
Аудио: Russian, 448 Кбит/сек, 48,0 КГц, 16 бит, 6 канала(ов), AC-3
Аудио:English, 448 Кбит/сек, 48,0 КГц, 16 бит, 6 канала(ов), AC-3
Субтитры:English, VobSub



Общее
Уникальный идентификатор : 180288518747041409688287839555879126427 (0x87A24E41988FBA0E83F0EEC4DBDB459B)
Полное имя : E:торрентSharks 3D ( 2004 )BDRip 1080p.mkv
Формат : Matroska
Размер файла : 2,24 Гбайт
Продолжительность : 41 м.
Общий поток : 7718 Кбит/сек
Дата кодирования : UTC 2011-03-27 08:12:29
Программа кодирования : mkvmerge v4.6.0 ('Still Crazy After All These Years') built on Mar 10 2011 02:50:32
Библиотека кодирования : libebml v1.2.0 + libmatroska v1.1.0

Видео
Идентификатор : 1
Формат : AVC
Формат/Информация : Advanced Video Codec
Профиль формата : High@L4.1
Параметр CABAC формата : Да
Параметр ReFrames формата : 10 кадры
Параметры GOP формата : M=5, N=32
Идентификатор кодека : V_MPEG4/ISO/AVC
Продолжительность : 41 м.
Битрейт : 6827 Кбит/сек
Ширина : 1920 пикс.
Высота : 1072 пикс.
Соотношение сторон : 16:9
Частота кадров : 23,976 кадр/сек
Цветовое пространство : YUV
Подвыборка цветности : 4:2:0
Битовая глубина : 8 бит
Тип развёртки : Прогрессивная
Бит/(Пиксели*Кадры) : 0.138
Размер потока : 1,94 Гбайт (86%)
Библиотека кодирования : x264 core 114 r1924 08d04a4
Настройки программы : cabac=1 / ref=10 / deblock=1:-3:-3 / analyse=0x3:0x133 / me=umh / subme=7 / psy=1 / psy_rd=1.00:0.15 / mixed_ref=1 / me_range=32 / chroma_me=1 / trellis=2 / 8x8dct=1 / cqm=0 / deadzone=21,11 / fast_pskip=0 / chroma_qp_offset=-3 / threads=6 / sliced_threads=0 / nr=0 / decimate=1 / interlaced=0 / constrained_intra=0 / bframes=4 / b_pyramid=2 / b_adapt=1 / b_bias=0 / direct=1 / weightb=0 / open_gop=0 / weightp=2 / keyint=250 / keyint_min=24 / scenecut=40 / intra_refresh=0 / rc_lookahead=40 / rc=2pass / mbtree=1 / bitrate=6827 / ratetol=1.0 / qcomp=0.80 / qpmin=10 / qpmax=51 / qpstep=4 / cplxblur=20.0 / qblur=0.5 / ip_ratio=1.40 / aq=1:1.00
Язык : English

Аудио #1
Идентификатор : 2
Формат : AC-3
Формат/Информация : Audio Coding 3
Расширение режима : CM (complete main)
Идентификатор кодека : A_AC3
Продолжительность : 41 м.
Вид битрейта : Постоянный
Битрейт : 448 Кбит/сек
Канал(ы) : 6 канала(ов)
Расположение каналов : Front: L C R, Side: L R, LFE
Частота : 48,0 КГц
Битовая глубина : 16 бит
Метод сжатия : С потерями
Размер потока : 133 Мбайт (6%)
Язык : Russian

Аудио #2
Идентификатор : 3
Формат : AC-3
Формат/Информация : Audio Coding 3
Расширение режима : CM (complete main)
Идентификатор кодека : A_AC3
Продолжительность : 41 м.
Вид битрейта : Постоянный
Битрейт : 448 Кбит/сек
Канал(ы) : 6 канала(ов)
Расположение каналов : Front: L C R, Side: L R, LFE
Частота : 48,0 КГц
Битовая глубина : 16 бит
Метод сжатия : С потерями
Размер потока : 133 Мбайт (6%)
Язык : English

Текст
Идентификатор : 4
Формат : VobSub
Режим смешивания : zlib
Идентификатор кодека : S_VOBSUB
Идентификатор кодека/Информация : The same subtitle format used on DVDs
Язык : English

Меню
00:00:00.000 : en:00:00:00.000
00:05:29.871 : en:00:05:29.871
00:11:20.096 : en:00:11:20.096
00:17:36.305 : en:00:17:36.305
00:22:36.480 : en:00:22:36.480
00:27:26.770 : en:00:27:26.770
00:34:31.528 : en:00:34:31.528
00:38:43.154 : en:00:38:43.154



Релиз от:



   Похожие торренты   Торрент   Размер 
В этой теме нет новых непрочитанных сообщений. Акулы / Sharks (2004) BDRip 720p

0 | 2

1.8 ГБ

В этой теме нет новых непрочитанных сообщений. Акулы 3D / Sharks 3D (2004) BDRip от AndrewWhite

223 | 19

699.15 МБ

В этой теме нет новых непрочитанных сообщений. Акулы 3D / Sharks 3D (2004) BDRip-AVC от HQCLUB

8 | 2

1.38 ГБ

В этой теме нет новых непрочитанных сообщений. Animal Planet: Акулы Палау / Paradise for Predators: Sharks of Palau (2004) SATRip от HitWay | P1

8 | 74

543.65 МБ

В этой теме нет новых непрочитанных сообщений. Другой / Godsend (2004) ВDRip 1080р | D, P, P2

6 | 10

7.16 ГБ

В этой теме нет новых непрочитанных сообщений. Акулы / Sharks [01-02 из 02] (2002) DVDRip

4 | 2

699.29 МБ

В этой теме нет новых непрочитанных сообщений. BBC: Акулы / BBC: Sharks [01-02 из 02] (2002) DVD9

5 | 2

5.6 ГБ




Вы не можете начинать темы
Вы не можете отвечать на сообщения
Вы не можете редактировать свои сообщения
Вы не можете удалять свои сообщения
Вы не можете добавлять вложения

Перейти:  
Для Мосгорсуда, Роскомнадзора и рекламодателей: mosgorsud-torrent[собачка]yandex.ru
 Вход
ppkBB3cker v.2 © 2008-2014 @ PPK
[ Time : 0.046s | 15 Queries | GZIP : Off ]

cron