img image001 image001 image001 image001 image001 image001 image001 image001 image001 image001 image001 image001 image001 image001 image001

Planets Sun Sun Sun
Статистика раздачи
Автор: Снежана | Размер: 219.92 МБ | Добавлен: 24 июл 2013
Раздают: 1    Качают: 3
Скачать торрент
Скачать торрент
Описание торрента

СообщениеДобавлено: 24 июл 2013 

#77
Год выхода: 2010
Жанр: Документальный
Продолжительность: 00:34:00
Перевод: не требуется
Производство: проект "СИЛА ПРАВДЫ"

Файл
Формат: AVI
Видео: (720x528),763 Кбит/сек, 4:3,29,90 кадр/сек
Звук: MP3,128 Кбит/сек,2 канала(ов),44,1 КГц
Описание:

Людоедство по технологии «Крысиный король»

Сложившаяся в Мире ситуация создана путем применения технологии, известной под названием «крысиный король». Задача этой технологии — разрушить ключевые узлы, невидимые фундаменты и скрепы социальной конструкции. Создать атмосферу раздробленности, когда каждый сам за себя и нет понятия «свой». Чтобы достичь этого, нужно сломать нравственность. Показателем сломанной нравственности является поведение, когда свой предает своего.

Суть этой технологии очень ярко раскрывается на примере крыс. Эти животные в первую очередь известны своей невероятной выживаемостью. Основа такой живучести — в социальной сплоченности. Крысы невероятно социальные животные. Они вместе ходят «на дело», помогают друг другу, защищают, если есть возможность, забирают с собой раненых. Крысы ощущают себя единым организмом и ведут себя как единый организм. Они быстро обмениваются информацией, быстро предупреждают об опасности, передают навыки защиты. В таком поведении нет индивидуальной выгоды. Защитный механизм имеет нравственную природу.

Один из самых эффективных способов борьбы с крысами основан на разрушении защиты. Так как защита имеет основанием нравственность, способ в итоге основан на разрушении нравственности. Всем нельзя сломать нравственность. Можно сломать одиночке, да и то не сразу. Ломают постепенно. Для этого создают условия, когда рациональная логика приобретает решающее значение. Главное, заставить совершить первый шаг — действие, до этого находящееся под абсолютным табу.
Формат : MPEG-4 Visual
Профиль формата : Simple@L1
Параметр BVOP формата : Нет
Параметр QPel формата : Нет
Параметр GMC формата : Без точки перехода
Параметр матрицы формата : Default (H.263)
Идентификатор кодека : DX50
Идентификатор кодека/Подсказка : DivX 5
Продолжительность : 34 м.
Битрейт : 763 Кбит/сек
Ширина : 720 пикс.
Высота : 528 пикс.
Соотношение сторон : 4:3
Частота кадров : 29,970 кадр/сек
Цветовое пространство : YUV
Подвыборка цветности : 4:2:0
Битовая глубина : 8 бит
Тип развёртки : Прогрессивная
Метод сжатия : С потерями
Бит/(Пиксели*Кадры) : 0.067
Размер потока : 186 Мбайт (84%)
Библиотека кодирования : Lavc52.29.0

Аудио
Идентификатор : 1
Формат : MPEG Audio
Версия формата : Version 1
Профиль формата : Layer 3
Режим : Joint stereo
Расширение режима : MS Stereo
Идентификатор кодека : 55
Идентификатор кодека/Подсказка : MP3
Продолжительность : 33 м.
Вид битрейта : Постоянный
Битрейт : 128 Кбит/сек
Канал(ы) : 2 канала(ов)
Частота : 44,1 КГц
Метод сжатия : С потерями
Размер потока : 31,1 Мбайт (14%)
Выравнивание : Соединение по промежуткам
Продолжительность промежутка : 26 мс. (0,78 видеокадр)
Время предзагрузки промежутка : 522 ms
Библиотека кодирования : LAME3.98







   Похожие торренты   Торрент   Размер 
В этой теме нет новых непрочитанных сообщений. Щелкунчик и Крысиный король / The Nutcracker (2010) DVDRip

22 | 3

703.09 МБ

В этой теме нет новых непрочитанных сообщений. Щелкунчик и крысиный король 3D / The Nutcracker in 3D [making of] (2010) DVDRip

14 | 3

1.29 ГБ

В этой теме нет новых непрочитанных сообщений. Щелкунчик и Крысиный Король (2010) PC

2 | 2

743.53 МБ

В этой теме нет новых непрочитанных сообщений. Щелкунчик и Крысиный король / The Nutcracker (2010) DVD5

0 | 2

4.32 ГБ

В этой теме нет новых непрочитанных сообщений. Щелкунчик и Крысиный король / The Nutcracker in 3D (2010) DVD9

1 | 3

5.19 ГБ

В этой теме нет новых непрочитанных сообщений. Щелкунчик и Крысиный король / The Nutcracker (2010) Blu-Ray Remux

4 | 3

23.32 ГБ

В этой теме нет новых непрочитанных сообщений. Щелкунчик и Крысиный король / The Nutcracker (2010) HDRip | Лицензия

208 | 5

1.37 ГБ




Вы не можете начинать темы
Вы не можете отвечать на сообщения
Вы не можете редактировать свои сообщения
Вы не можете удалять свои сообщения
Вы не можете добавлять вложения

Перейти:  
Для Мосгорсуда, Роскомнадзора и рекламодателей: mosgorsud-torrent[собачка]yandex.ru
 Вход
ppkBB3cker v.2 © 2008-2014 @ PPK
[ Time : 0.030s | 14 Queries | GZIP : Off ]

Торрент трекер RUTOR.IN, Не можете зайти на rutor.org? Какой новый адрес рутор? Какое зеркало рутор? Не работает rutor.org и зеркала? Тогда наш торрент специально для вас. Rutor.in неофициальное зеркало rutor. В случае если у Вас заблокирован rutor или вдруг Вы не можете на него зайти, то Вы без труда сможете скачать бесплатно и без рекламы последние новинки кино, игр, сериалов и прочего у нас, на Rutor.in. Не нужно использовать прокси, чтобы зайти на рутор, достаточно воспользоваться нашим ресурсом. Все новые фильмы, игры, сериалы, книги и музыка за 2013 и 2014 годы через торрент бесплатно. Скачивайте фильмы в хорошем качестве, игры для пк, xbox, playstation без регистрации. У нас вы найдете новые Зарубежные сериалы и Русские сериалы 2013, 2014, 2015 годов. Оставайтесь с нами, качайте любимые фильмы, игры, сериалы, книги и музыку.