img image001 image001 image001 image001 image001 image001 image001 image001 image001 image001 image001 image001 image001 image001 image001

Planets Sun Sun Sun
Статистика раздачи
Автор: Снежана | Размер: 2.19 ГБ | Добавлен: 24 июл 2013
Раздают: 14    Качают: 5
Скачать торрент
Скачать торрент
Описание торрента

СообщениеДобавлено: 24 июл 2013 

#77

Информация о фильме
Название: National Geographic: Чудища морей: Доисторическое Приключение
Оригинальное название: National Geographic: Sea Monsters: A Prehistoric Adventure
Год выхода: 2007
Жанр: Документальный, приключения
Режиссер: Шон Маклеод Филлипс
В ролях: Джерри Хоффман, Дженнифер Агиляр, Майкл Эшкрафт, Майкл Эшкрофт, Paul Burmaster, Paul W. Burmaster, Альберт Дж. Бернс, Daniel Coldham, Тони Додд, Дерек Гэмбл

О фильме:
Фильм-путешествие в малоизученный мир «необычных» — подводных — динозавров. Здесь тесно переплетаются красочная фотореалистическая анимация и уникальные палеонтологические находки со всего мира — сокровища, которые пролили свет на жизнь персонажей фильма.



Страна: США
Студия: National Geographic Giant Screen Films, Day's End Pictures
Продолжительность: 00:39:34
Перевод: Любительский (одноголосый закадровый) + Оригинал (Английский)

Файл
Формат: MKV
Кодек: H.264
Качество: BDRip 720p
Видео: 1280х720 (16:9), 7009 Kbps, 23,976 fps, 0.317 bit/pixel
Аудио 1#: Русский AC3 Dolby Digital; 48 kHz, 6 ch, 448 kbps
Аудио 2#: Английский AC3 Dolby Digital; 48 kHz, 6 ch, 448 kbps
Субтитры: Английские
Скачать: Семпл

Общее
Уникальный идентификатор : 188219519832545768825014877571619164679 (0x8D99C2CCB9D1F332BF4E08B065BF1207)
Полное имя : F:Chudiwa.morej.Doistoricheskoe.prikljuchenie.2007.x264.BDRip.720p.mkv
Формат : Matroska
Размер файла : 2,19 Гбайт
Продолжительность : 39 м.
Общий поток : 7908 Кбит/сек
Дата кодирования : UTC 2011-05-01 15:44:49
Программа кодирования : mkvmerge v4.7.0 ('Just Like You Imagined') сборка от Apr 21 2011 01:13:14
Библиотека кодирования : libebml v1.2.0 + libmatroska v1.1.0

Видео
Идентификатор : 1
Формат : AVC
Формат/Информация : Advanced Video Codec
Профиль формата : High@L4.1
Параметр CABAC формата : Да
Параметр ReFrames формата : 8 кадры
Режим смешивания : Header stripping
Идентификатор кодека : V_MPEG4/ISO/AVC
Продолжительность : 39 м.
Битрейт : 7009 Кбит/сек
Ширина : 1280 пикс.
Высота : 720 пикс.
Соотношение сторон : 16:9
Частота кадров : 23,976 кадр/сек
Цветовое пространство : YUV
Подвыборка цветности : 4:2:0
Битовая глубина : 8 бит
Тип развёртки : Прогрессивная
Бит/(Пиксели*Кадры) : 0.317
Размер потока : 1,89 Гбайт (87%)
Библиотека кодирования : x264 core 114 r1924 08d04a4
Настройки программы : cabac=1 / ref=9 / deblock=1:-3:-3 / analyse=0x3:0x133 / me=umh / subme=10 / psy=1 / psy_rd=1.00:0.00 / mixed_ref=1 / me_range=64 / chroma_me=1 / trellis=2 / 8x8dct=1 / cqm=0 / deadzone=21,11 / fast_pskip=0 / chroma_qp_offset=-2 / threads=6 / sliced_threads=0 / nr=0 / decimate=1 / interlaced=0 / constrained_intra=0 / bframes=3 / b_pyramid=1 / b_adapt=2 / b_bias=0 / direct=3 / weightb=1 / open_gop=2 / weightp=2 / keyint=250 / keyint_min=23 / scenecut=40 / intra_refresh=0 / rc_lookahead=60 / rc=2pass / mbtree=1 / bitrate=7009 / ratetol=1.0 / qcomp=0.60 / qpmin=0 / qpmax=30 / qpstep=1 / cplxblur=20.0 / qblur=0.5 / vbv_maxrate=50000 / vbv_bufsize=50000 / nal_hrd=none / ip_ratio=1.40 / aq=1:1.00
Язык : English

Аудио #1
Идентификатор : 2
Формат : AC-3
Формат/Информация : Audio Coding 3
Расширение режима : CM (complete main)
Режим смешивания : Header stripping
Идентификатор кодека : A_AC3
Продолжительность : 39 м.
Вид битрейта : Постоянный
Битрейт : 448 Кбит/сек
Канал(ы) : 6 канала(ов)
Расположение каналов : Front: L C R, Side: L R, LFE
Частота : 48,0 КГц
Битовая глубина : 16 бит
Метод сжатия : С потерями
Размер потока : 127 Мбайт (6%)
Язык : Russian

Аудио #2
Идентификатор : 3
Формат : AC-3
Формат/Информация : Audio Coding 3
Расширение режима : CM (complete main)
Режим смешивания : Header stripping
Идентификатор кодека : A_AC3
Продолжительность : 39 м.
Вид битрейта : Постоянный
Битрейт : 448 Кбит/сек
Канал(ы) : 6 канала(ов)
Расположение каналов : Front: L C R, Side: L R, LFE
Частота : 48,0 КГц
Битовая глубина : 16 бит
Метод сжатия : С потерями
Размер потока : 127 Мбайт (6%)
Язык : English

Текст
Идентификатор : 4
Формат : UTF-8
Идентификатор кодека : S_TEXT/UTF8
Идентификатор кодека/Информация : UTF-8 Plain Text
Язык : English



Автор рипа: Alexander82

   Похожие торренты   Торрент   Размер 
В этой теме нет новых непрочитанных сообщений. Чудища морей 3D: Доисторическое приключение / Sea Monsters: A Prehistoric Adventure (2007) HDTV 1080p | 3D-Video | halfSBS | L1

12 | 0

1.39 ГБ

В этой теме нет новых непрочитанных сообщений. Авто S.O.S. (3 сезон, 1-7 серии из 10) / National Geographic. Car S.O.S. (National Geographic Channels) [2015, документальный, телепередача, реалити-шоу, HDTV 1080i] VO

0 | 3

20.31 ГБ

В этой теме нет новых непрочитанных сообщений. Авто S.O.S. (2 сезон, 1-9 серии из 10) / National Geographic. Car S.O.S. (National Geographic Channels) [2014, документальный, телепередача, реалити-шоу, HDTV 1080i] VO

0 | 2

26.02 ГБ

В этой теме нет новых непрочитанных сообщений. Авто S.O.S. (2 сезон, 1,4-8 серии из 10) / National Geographic. Car S.O.S. (National Geographic Channels) [2014, документальный, телепередача, реалити-шоу, HDTV 1080i] VO

2 | 0

17.37 ГБ

В этой теме нет новых непрочитанных сообщений. Авто S.O.S. (2 сезон, 1,4-7 серии из 10) / National Geographic. Car S.O.S. (National Geographic Channels) [2014, документальный, телепередача, реалити-шоу, HDTV 1080i] VO

2 | 0

14.5 ГБ

В этой теме нет новых непрочитанных сообщений. Сокровища Тутанхамона (1-3 серии из 3) / National Geographic. Tut's Treasures: Hidden Secrets (National Geographic) [2017, документальный, познавательный, история, исследование, SATRip] DUB

0 | 0

2.13 ГБ

В этой теме нет новых непрочитанных сообщений. National Geographic: Осушить океан: Тайны Китайских морей / Drain the Oceans. Mysteries of the China Seas (2018) DVB | P1

4 | 5

1.26 ГБ




Вы не можете начинать темы
Вы не можете отвечать на сообщения
Вы не можете редактировать свои сообщения
Вы не можете удалять свои сообщения
Вы не можете добавлять вложения

Перейти:  
Контактная информация: rstracker[пёсик]yandex.ru
 Вход
ppkBB3cker v.2 © 2008-2014 @ PPK
[ Time : 0.017s | 15 Queries | GZIP : Off ]

cron